[Rec] movie series (Spanish movie with English substile)

[Rec] movie series (Spanish movie with English substile) Torrent
Size: 3.9 GB
Language: Spanish
Uploader: 8a8a

Download [Rec] movie series (Spanish movie with English substile) Torrent torrent video for PC, tablet, MAC, IPhone or Android device.
[Rec] movie series (Spanish movie with English substile) Torrent For Torrent download Link. Scroll down!.


MOVIE TRAILER BELLOW.


(Best  Horror, Mystery, Thriller)A reporter (Manuela Velasco) and her cameraman record the horrifying outbreak of a disease that turns humans into vicious cannibals

Best zombie horror lover


IMDB 7.5

Code:

[REC] movie series\Rec 2007 BRRip 720p x264 AC3 [Castellano_Eng.Sub] URBiN4HD\Rec 2007 BRRip 720p x264 AC3 [Castellano_Eng.Sub] URBiN4HD.mkv
     Format : Matroska
     Format version : Version 2
     File size : 1.12 GiB
     Duration : 1 h 15 min
     Overall bit rate : 2 118 kb/s
     Encoded date : UTC 2014-11-21 08:53:49
     Writing application : mkvmerge v7.3.0 ('Nouages') 64bit built on Oct 22 2014 18:53:34
     Writing library : libebml v1.3.0 + libmatroska v1.4.1
  Video #1
     ID : 1
     Format : AVC
     Format/Info : Advanced Video Codec
     Format profile :
[email protected]
     Format settings, CABAC : Yes
     Format settings, ReFrames : 4 frames
     Codec ID : V_MPEG4/ISO/AVC
     Duration : 1 h 15 min
     Bit rate : 1 800 kb/s
     Width : 1 280 pixels
     Height : 688 pixels
     Display aspect ratio : 1.85:1
     Frame rate mode : Constant
     Frame rate : 23.976 (24000/1001) FPS
     Color space : YUV
     Chroma subsampling : 4:2:0
     Bit depth : 8 bits
     Scan type : Progressive
     Bits/(Pixel*Frame) : 0.085
     Stream size : 939 MiB (82%)
     Writing library : x264 core 142 r2479 dd79a61
   
     Default : Yes
     Forced : No
  Audio #2
     ID : 2
     Format : AC-3
     Format/Info : Audio Coding 3
     Mode extension : CM (complete main)
     Format settings, Endianness : Big
     Codec ID : A_AC3
     Duration : 1 h 15 min
     Bit rate mode : Constant
     Bit rate : 384 kb/s
     Channel(s) : 6 channels
     Channel positions : Front: L C R, Side: L R, LFE
     Sampling rate : 48.0 kHz
     Frame rate : 31.250 FPS (1536 spf)
     Compression mode : Lossy
     Stream size : 208 MiB (18%)
     Language : Spanish
     Default : Yes
     Forced : No
  Text #3
     ID : 3
     Format : UTF-8
     Codec ID : S_TEXT/UTF8
     Codec ID/Info : UTF-8 Plain Text
     Duration : 19 s 500 ms
     Bit rate : 42 b/s
     Count of elements : 1
     Stream size : 103 Bytes (0%)
     Title : Encoded By / Encodeado Por:  URBiN4HD
     Default : Yes
     Forced : No
  Text #4
     ID : 4
     Format : UTF-8
     Codec ID : S_TEXT/UTF8
     Codec ID/Info : UTF-8 Plain Text
     Duration : 1 h 10 min
     Bit rate : 57 b/s
     Count of elements : 1038
     Stream size : 29.7 KiB (0%)
     Language : English
     Default : No
     Forced : No



[Rec] movie series (Spanish movie with English substile) Torrent




Hey Friend! Like us!