18+ Grindhouse Nightmares 2017 UNCENSORED Movies HDRip x264 with Sample ☻rDX☻

18+ Grindhouse Nightmares 2017 UNCENSORED Movies HDRip x264 with Sample ☻rDX☻ Torrent
Size: 704.6 MB
Language: English
Uploader: nehalpuja

Download 18+ Grindhouse Nightmares 2017 UNCENSORED Movies HDRip x264 with Sample ☻rDX☻ Torrent torrent video for PC, tablet, MAC, IPhone or Android device.
18+ Grindhouse Nightmares 2017 UNCENSORED Movies HDRip x264 with Sample ☻rDX☻ Torrent For Torrent download Link. Scroll down!.


MOVIE TRAILER BELLOW.


18+ Grindhouse Nightmares 2017 UNCENSORED Movies HDRip x264 with Sample ☻rDX☻
===============================================================================================

SCREEN SHOTS:



or

http://postimage.co.nr/2018/2/course/1.html

File size : 695 MiB
Duration : 1 h 13 min
Overall bit rate : 1 315 kb/s
Movie name : 18+ Grindhouse Nightmares 2017 UNCENSORED Movies HDRip x264 ☻rDX☻

Video
ID : 2
Format : MPEG-4 Visual
Format profile : Advanced [email protected]
Format settings, BVOP : 2
Format settings, QPel : No
Format settings, GMC : No warppoints
Format settings, Matrix : Default (H.263)
Muxing mode : Packed bitstream
Codec ID : V_MS/VFW/FOURCC / XVID
Codec ID/Hint : XviD
Duration : 1 h 13 min
Bit rate : 1 161 kb/s
Width : 640 pixels
Height : 272 pixels
Display aspect ratio : 2.35:1
Frame rate mode : Constant
Frame rate : 23.976 (24000/1001) FPS
Color space : YUV
Chroma subsampling : 4:2:0
Bit depth : 8 bits
Scan type : Progressive
Compression mode : Lossy
Bits/(Pixel*Frame) : 0.278
Stream size : 613 MiB (88%)
Title : ☻rDX☻
Writing library : XviD 67
Default : Yes
Forced : No

Audio
ID : 1
Format : MPEG Audio
Format version : Version 1
Format profile : Layer 3
Mode : Joint stereo
Codec ID : A_MPEG/L3
Codec ID/Hint : MP3
Duration : 1 h 13 min
Bit rate mode : Constant
Bit rate : 128 kb/s
Channel(s) : 2 channels
Sampling rate : 48.0 kHz
Compression mode : Lossy
Stream size : 67.6 MiB (10%)
Title : ☻rDX☻
Writing library : LAME3.99r
Default : Yes
Forced : No



IMDB : http://www.imdb.com/title/tt7520216

18+ Grindhouse Nightmares 2017 UNCENSORED Movies HDRip x264 with Sample ☻rDX☻ Torrent




Hey Friend! Like us!