2 21 2017 720p WEB-DL H264 AC3-EVO

2 21 2017 720p WEB-DL H264 AC3-EVO Torrent
Size: 3.1 GB
Language: English
Uploader: showstopper

Download 2 21 2017 720p WEB-DL H264 AC3-EVO Torrent torrent video for PC, tablet, MAC, IPhone or Android device.
2 21 2017 720p WEB-DL H264 AC3-EVO Torrent For Torrent download Link. Scroll down!.


MOVIE TRAILER BELLOW.


2.21.2017.720p.WEB-DL.H264.AC3-EVO

ImDb:
http://www.imdb.com/title/tt6706756



Complete name : 2.21.2017.720p.WEB-DL.H264.AC3-EVO.mkv
Format : Matroska
Format version : Version 4 / Version 2
File size : 3.06 GiB
Duration : 1 h 38 min
Overall bit rate : 4 428 kb/s
Movie name : EVO
Encoded date : UTC 2017-06-30 11:33:46
Writing application : mkvmerge v6.7.0 ('Back to the Ground') 64bit built on Jan 8 2014 15:10:52
Writing library : libebml v1.3.0 + libmatroska v1.4.1

Video
ID : 2
Format : AVC
Format/Info : Advanced Video Codec
Format profile : [email protected]
Format settings, CABAC : No
Format settings, ReFrames : 2 frames
Codec ID : V_MPEG4/ISO/AVC
Duration : 1 h 38 min
Bit rate : 3 956 kb/s
Width : 1 280 pixels
Height : 530 pixels
Display aspect ratio : 2.40:1
Frame rate mode : Constant
Frame rate : 23.976 FPS
Color space : YUV
Chroma subsampling : 4:2:0
Bit depth : 8 bits
Scan type : Progressive
Bits/(Pixel*Frame) : 0.243
Stream size : 2.73 GiB (89%)
Language : English
Default : Yes
Forced : No
Color range : Limited
Color primaries : BT.709
Transfer characteristics : BT.709
Matrix coefficients : BT.709

Audio
ID : 1
Format : AC-3
Format/Info : Audio Coding 3
Format settings, Endianness : Big
Codec ID : A_AC3
Duration : 1 h 38 min
Bit rate mode : Constant
Bit rate : 384 kb/s
Channel(s) : 6 channels
Channel positions : Front: L C R, Side: L R, LFE
Sampling rate : 48.0 kHz
Frame rate : 31.250 FPS (1536 spf)
Bit depth : 16 bits
Compression mode : Lossy
Stream size : 272 MiB (9%)
Language : English
Service kind : Complete Main
Default : Yes
Forced : No

Menu
00:00:00.000 : en:1
00:06:14.457 : en:2
00:11:51.669 : en:3
00:17:33.969 : en:4
00:23:36.038 : en:5
00:29:00.821 : en:6
00:33:37.889 : en:7
00:40:18.998 : en:8
00:45:21.425 : en:9
00:51:59.363 : en:10
00:58:27.959 : en:11
01:02:26.739 : en:12
01:11:45.838 : en:13
01:14:55.652 : en:14
01:22:18.845 : en:15
01:25:23.695 : en:16





Click To View Screenshot
Click To View Screenshot
Click To View Screenshot


2 21 2017 720p WEB-DL H264 AC3-EVO Torrent




Hey Friend! Like us!