A Better Life 2011 720p 720p x264 Esub BDRip Dual Audio English Hindi GOPISAHI

A Better Life 2011 720p  720p x264 Esub BDRip  Dual Audio English Hindi GOPISAHI Torrent
Size: 467.4 MB
Language: English
Uploader: PENDUDESI

Download A Better Life 2011 720p 720p x264 Esub BDRip Dual Audio English Hindi GOPISAHI Torrent torrent video for PC, tablet, MAC, IPhone or Android device.
A Better Life 2011 720p 720p x264 Esub BDRip Dual Audio English Hindi GOPISAHI Torrent For Torrent download Link. Scroll down!.


MOVIE TRAILER BELLOW.



Format : Matroska
Format version : Version 4 / Version 2
File size : 467 MiB
Duration : 1 h 37 min
Overall bit rate : 670 kb/s
Movie name : A Better Life 2011 GOPISAHI

Video
Format : AVC
Codec ID : V_MPEG4/ISO/AVC
Duration : 1 h 37 min
Bit rate : 500 kb/s
Width : 1 280 pixels
Height : 720 pixels
Display aspect ratio : 16:9
Frame rate mode : Constant
Frame rate : 23.976 (24000/1001) FPS
Stream size : 348 MiB (75%)
Title : GOPISAHI
Writing library : x264 core 155 r2893 b00bcaf

Audio #1
Format : AAC
Duration : 1 h 37 min
Bit rate : 82.6 kb/s
Channel(s) : 6 channels
Channel positions : Front: L C R, Side: L R, LFE
Sampling rate : 44.1 kHz
Frame rate : 43.066 FPS (1024 SPF)
Compression mode : Lossy
Stream size : 57.6 MiB (12%)
Title : GOPISAHI
Language : Hindi

Audio #2
Format : AAC
Duration : 1 h 37 min
Bit rate : 85.1 kb/s
Channel(s) : 6 channels
Channel positions : Front: L C R, Side: L R, LFE
Sampling rate : 44.1 kHz
Frame rate : 43.066 FPS (1024 SPF)
Compression mode : Lossy
Stream size : 59.3 MiB (13%)
Title : GOPISAHI
Language : English

Text
Language : English


A Better Life 2011 720p  720p x264 Esub BDRip  Dual Audio English Hindi GOPISAHI Torrent




Hey Friend! Like us!