Acts of Violence 2017 1080p WEBRip 6CH AAC x264 - EiE

Acts of Violence 2017 1080p WEBRip 6CH AAC x264 - EiE Torrent
Size: 1.5 GB
Language: English
Uploader: samcode4u

Download Acts of Violence 2017 1080p WEBRip 6CH AAC x264 - EiE Torrent torrent video for PC, tablet, MAC, IPhone or Android device.
Acts of Violence 2017 1080p WEBRip 6CH AAC x264 - EiE Torrent For Torrent download Link. Scroll down!.


MOVIE TRAILER BELLOW.







Click on the link to see Screenshot:

https://lensdump.com/i/Y4vzP

https://lensdump.com/i/Y4nCZ

https://lensdump.com/i/Y4Lwm

https://lensdump.com/i/Y4Y1i




Code:


Video
ID : 1
Format : AVC
Format/Info : Advanced Video Codec
Format settings : CABAC / 4 Ref Frames
Format settings, CABAC : Yes
Format settings, RefFrames : 4 frames
Codec ID : avc1
Codec ID/Info : Advanced Video Coding
Duration : 1 h 26 min
Bit rate : 2 233 kb/s
Maximum bit rate : 9 898 kb/s
Width : 1 904 pixels
Height : 792 pixels
Display aspect ratio : 2.40:1
Frame rate mode : Constant
Frame rate : 23.976 FPS
Color space : YUV
Chroma subsampling : 4:2:0
Bit depth : 8 bits
Scan type : Progressive
Bits/(Pixel*Frame) : 0.062
Stream size : 1.35 GiB (90%)

Audio
ID : 2
Format : AAC
Format/Info : Advanced Audio Codec
Format profile : LC
Duration : 1 h 26 min
Bit rate mode : Variable
Bit rate : 238 kb/s
Maximum bit rate : 304 kb/s
Channel(s) : 6 channels
Channel positions : Front: L C R, Side: L R, LFE
Sampling rate : 48.0 kHz
Frame rate : 46.875 FPS
Compression mode : Lossy
Stream size : 148 MiB (10%)
Language : English


Acts of Violence 2017 1080p WEBRip 6CH AAC x264 - EiE Torrent




Hey Friend! Like us!