Baaghi 2 (2018) [Hindi - HDRip - x264 - 700MB] - Team TR

Baaghi 2 (2018) [Hindi - HDRip - x264 - 700MB] - Team TR Torrent
Size: 698.6 MB
Language: Hindi
Uploader: RockerS

Download Baaghi 2 (2018) [Hindi - HDRip - x264 - 700MB] - Team TR Torrent torrent video for PC, tablet, MAC, IPhone or Android device.
Baaghi 2 (2018) [Hindi - HDRip - x264 - 700MB] - Team TR Torrent For Torrent download Link. Scroll down!.


MOVIE TRAILER BELLOW.


Baaghi 2 (2018) [Hindi - HDRip - x264 - 700MB] - Team TR


SAMPLE

SCREENSHOTS

Team TamilRockers Exclusive

Source : DesireMovies (Thanks a lot)

MEDIA INFO
General
Format                         : Matroska
Format version                 : Version 4 / Version 2
File size                      : 704 MiB
Duration                       : 2 h 27 min
Overall bit rate               : 666 kb/s

Video
ID                             : 1
Format                         : AVC
Format/Info                    : Advanced Video Codec
Duration                       : 2 h 27 min
Bit rate                       : 618 kb/s
Width                          : 720 pixels
Height                         : 320 pixels
Display aspect ratio           : 2.25:1
Frame rate mode                : Constant
Frame rate                     : 25.000 FPS
Stream size                    : 651 MiB (93%)
Language                       : Hindi
Default                        : Yes
Forced                         : No


Audio
ID                             : 2
Format                         : MPEG Audio
Format version                 : Version 1
Format profile                 : Layer 3
Format settings                : Joint stereo / MS Stereo
Codec ID                       : A_MPEG/L3
Codec ID/Hint                  : MP3
Duration                       : 2 h 27 min
Bit rate mode                  : Constant
Bit rate                       : 48.0 kb/s
Channel(s)                     : 2 channels
Sampling rate                  : 48.0 kHz
Frame rate                     : 41.667 FPS (1152 SPF)
Compression mode               : Lossy
Delay relative to video        : -23 ms
Stream size                    : 50.7 MiB (7%)
Language                       : Hindi
Default                        : Yes
Forced                         : No


Baaghi 2 (2018) [Hindi - HDRip - x264 - 700MB] - Team TR Torrent




Hey Friend! Like us!