Captain Corelli's Mandolin 2001 (1080p Bluray x265 HEVC 10bit AAC 5 1 Tigole) [UTR]

Captain Corelli's Mandolin 2001 (1080p Bluray x265 HEVC 10bit AAC 5 1 Tigole) [UTR] Torrent
Size: 5.0 GB
Language: English
Uploader: UTRplus

Download Captain Corelli's Mandolin 2001 (1080p Bluray x265 HEVC 10bit AAC 5 1 Tigole) [UTR] Torrent torrent video for PC, tablet, MAC, IPhone or Android device.
Captain Corelli's Mandolin 2001 (1080p Bluray x265 HEVC 10bit AAC 5 1 Tigole) [UTR] Torrent For Torrent download Link. Scroll down!.


MOVIE TRAILER BELLOW.




Captain Corelli's Mandolin 2001 in 1080p, encoded with x265 in HEVC and AAC 5.1 English, with subtitles!
Encoded using the time consuming 2 pass, 10 bit color at 5000 kbps, from a Blu-ray source, for the highest quality possible.



Media Information

Code:

General
Format : Matroska
Format version : Version 4 / Version 2
File size : 5.04 GiB
Duration : 2 h 9 min
Overall bit rate : 5 586 kb/s
Encoded date : UTC 2017-11-03 05:39:33
Writing application : mkvmerge v14.0.0 ('Flow') 64bit
Writing library : libebml v1.3.4 + libmatroska v1.4.5

Video
ID : 1
Format : HEVC
Format/Info : High Efficiency Video Coding
Format profile : Main [email protected]@Main
Codec ID : V_MPEGH/ISO/HEVC
Duration : 2 h 9 min
Bit rate : 4 998 kb/s
Width : 1 912 pixels
Height : 816 pixels
Display aspect ratio : 2.35:1
Frame rate mode : Constant
Frame rate : 23.976 (24000/1001) FPS
Color space : YUV
Chroma subsampling : 4:2:0
Bit depth : 10 bits
Bits/(Pixel*Frame) : 0.134
Stream size : 4.51 GiB (89%)
Writing library : x265 2.5+22-8db95a1da9f8:[Windows][GCC 7.1.0][64 bit] 10bit
Encoding settings : cpuid=1173503 / frame-threads=3 / numa-pools=8 / wpp / no-pmode / no-pme / no-psnr / no-ssim / log-level=2 / input-csp=1 / input-res=1912x816 / interlace=0 / total-frames=185787 / level-idc=0 / high-tier=1 / uhd-bd=0 / ref=4 / no-allow-non-conformance / no-repeat-headers / annexb / no-aud / no-hrd / info / hash=0 / no-temporal-layers / open-gop / min-keyint=23 / keyint=250 / bframes=4 / b-adapt=2 / b-pyramid / bframe-bias=0 / rc-lookahead=25 / lookahead-slices=4 / scenecut=40 / no-intra-refresh / ctu=64 / min-cu-size=8 / rect / no-amp / max-tu-size=32 / tu-inter-depth=1 / tu-intra-depth=1 / limit-tu=0 / rdoq-level=2 / dynamic-rd=0.00 / no-ssim-rd / signhide / no-tskip / nr-intra=0 / nr-inter=0 / no-constrained-intra / strong-intra-smoothing / max-merge=3 / limit-refs=3 / limit-modes / me=3 / subme=3 / merange=57 / temporal-mvp / weightp / no-weightb / no-analyze-src-pics / deblock=0:0 / sao / no-sao-non-deblock / rd=4 / no-early-skip / rskip / no-fast-intra / no-tskip-fast / no-cu-lossless / no-b-intra / no-splitrd-skip / rdpenalty=0 / psy-rd=2.00 / psy-rdoq=1.00 / no-rd-refine / analysis-reuse-mode=0 / no-lossless / cbqpoffs=0 / crqpoffs=0 / rc=abr / bitrate=5000 / qcomp=0.60 / qpstep=4 / stats-write=0 / stats-read=2 / cplxblur=20.0 / qblur=0.5 / ipratio=1.40 / pbratio=1.30 / aq-mode=2 / aq-strength=1.00 / cutree / zone-count=0 / no-strict-cbr / qg-size=32 / no-rc-grain / qpmax=69 / qpmin=0 / no-const-vbv / sar=0 / overscan=0 / videoformat=5 / range=0 / colorprim=2 / transfer=2 / colormatrix=2 / chromaloc=0 / display-window=0 / max-cll=0,0 / min-luma=0 / max-luma=1023 / log2-max-poc-lsb=8 / vui-timing-info / vui-hrd-info / slices=1 / opt-qp-pps / opt-ref-list-length-pps / no-multi-pass-opt-rps / scenecut-bias=0.05 / no-opt-cu-delta-qp / no-aq-motion / no-hdr / no-hdr-opt / no-dhdr10-opt / analysis-reuse-level=5 / scale-factor=0 / refine-intra=0 / refine-inter=0 / refine-mv=0 / no-limit-sao / ctu-info=0
Default : Yes
Forced : No

Audio
ID : 2
Format : AAC
Format/Info : Advanced Audio Codec
Format profile : LC
Codec ID : A_AAC
Duration : 2 h 9 min
Bit rate : 466 kb/s
Channel(s) : 6 channels
Channel positions : Front: L C R, Side: L R, LFE
Sampling rate : 48.0 kHz
Frame rate : 46.875 FPS (1024 spf)
Compression mode : Lossy
Delay relative to video : 20 ms
Stream size : 430 MiB (8%)
Language : English
Default : Yes
Forced : No

Text #1
ID : 3
Format : UTF-8
Codec ID : S_TEXT/UTF8
Codec ID/Info : UTF-8 Plain Text
Duration : 2 h 2 min
Bit rate : 42 b/s
Count of elements : 1303
Stream size : 38.1 KiB (0%)
Language : English
Default : No
Forced : No

Text #2
ID : 4
Format : VobSub
Muxing mode : zlib
Codec ID : S_VOBSUB
Codec ID/Info : Picture based subtitle format used on DVDs
Duration : 2 h 3 min
Bit rate : 66.3 kb/s
Count of elements : 8707
Stream size : 58.4 MiB (1%)
Language : Czech
Default : No
Forced : No

Text #3
ID : 5
Format : VobSub
Muxing mode : zlib
Codec ID : S_VOBSUB
Codec ID/Info : Picture based subtitle format used on DVDs
Duration : 2 h 2 min
Bit rate : 64.7 kb/s
Count of elements : 7848
Stream size : 56.9 MiB (1%)
Language : Hungarian
Default : No
Forced : No

Text #4
ID : 6
Format : VobSub
Muxing mode : zlib
Codec ID : S_VOBSUB
Codec ID/Info : Picture based subtitle format used on DVDs
Duration : 2 h 0 min
Bit rate : 66.1 kb/s
Count of elements : 7409
Stream size : 57.0 MiB (1%)
Language : Romanian
Default : No
Forced : No

Menu
00:00:00.000 : en:Chapter 01
00:08:01.898 : en:Chapter 02
00:15:07.615 : en:Chapter 03
00:20:02.534 : en:Chapter 04
00:26:31.673 : en:Chapter 05
00:36:12.044 : en:Chapter 06
00:42:18.744 : en:Chapter 07
00:50:41.747 : en:Chapter 08
00:55:56.227 : en:Chapter 09
01:01:32.021 : en:Chapter 10
01:14:32.801 : en:Chapter 11
01:19:41.651 : en:Chapter 12
01:28:25.049 : en:Chapter 13
01:34:18.152 : en:Chapter 14
01:46:52.280 : en:Chapter 15
01:57:23.536 : en:Chapter 16


Source Information

Code:

Release : Captain Corelli's Mandolin 2001 1080p CEE Blu-ray AVC DTS-HD MA 5.1-TreZzoR
Complete name : CAPTAIN_CORELLI'S_MANDOLIN_t00.mkv
File size : 33.5 GiB
Duration : 2 h 9 min
Overall bit rate mode : Variable
Overall bit rate : 37.2 Mb/s


Captain Corelli's Mandolin 2001 (1080p Bluray x265 HEVC 10bit AAC 5 1 Tigole) [UTR] Torrent




Hey Friend! Like us!