Dark (2017) - Season 1 Complete - 1080p x265 HEVC - GER (ENG SUBS) [BRSHNKV]

Dark (2017) - Season 1 Complete - 1080p x265 HEVC - GER (ENG SUBS) [BRSHNKV] Torrent
Size: 3.7 GB
Language: German
Uploader: Baryshnikov

Download Dark (2017) - Season 1 Complete - 1080p x265 HEVC - GER (ENG SUBS) [BRSHNKV] Torrent torrent video for PC, tablet, MAC, IPhone or Android device.
Dark (2017) - Season 1 Complete - 1080p x265 HEVC - GER (ENG SUBS) [BRSHNKV] Torrent For Torrent download Link. Scroll down!.


MOVIE TRAILER BELLOW.


A family saga with a supernatural twist, set in a German town, where the disappearance of two young children exposes the relationships among four families.









Same settings for all eps:

Format : MPEG-4
Format profile : Base Media / Version 2
Codec ID : mp42
Overall bit rate mode : Variable
Overall bit rate : 1 072 Kbps
Encoded date : UTC 2018-01-06 18:32:38
Tagged date : UTC 2018-01-06 18:32:38
Writing application : HandBrake 20160211184813-ffd8cb1-master 2016021301

Video
ID : 1
Format : HEVC
Format/Info : High Efficiency Video Coding
Format profile : Main
[email protected]@Main
Codec ID : hev1
Codec ID/Info : High Efficiency Video Coding
Bit rate : 902 Kbps
Width : 1 920 pixels
Height : 960 pixels
Display aspect ratio : 2.000
Frame rate mode : Constant
Frame rate : 24.000 fps
Color space : YUV
Chroma subsampling : 4:2:0
Bit depth : 10 bits
Bits/(Pixel*Frame) : 0.020
Stream size : 293 MiB (84%)
Writing library : x265 1.9:[Mac OS X][clang 7.0.2][64 bit] 10bit
Encoded date : UTC 2018-01-06 18:32:38
Tagged date : UTC 2018-01-06 18:32:38
Color range : Limited
Color primaries : BT.709
Transfer characteristics : BT.709
Matrix coefficients : BT.709

Audio
ID : 2
Format : AAC
Format/Info : Advanced Audio Codec
Format profile : LC
Codec ID : 40
Bit rate mode : Variable
Bit rate : 165 Kbps
Channel(s) : 2 channels
Channel positions : Front: L R
Sampling rate : 48.0 KHz
Compression mode : Lossy
Stream size : 53.4 MiB (15%)
Title : Stereo / Stereo
Language : German
Encoded date : UTC 2018-01-06 18:32:38
Tagged date : UTC 2018-01-06 18:32:38

Text
ID : 3
Format : Timed Text
Muxing mode : sbtl
Codec ID : tx3g
Bit rate mode : Variable
Bit rate : 29 bps
Stream size : 9.46 KiB (0%)
Language : English
Encoded date : UTC 2018-01-06 18:32:38
Tagged date : UTC 2018-01-06 18:32:38

Dark (2017) - Season 1 Complete - 1080p x265 HEVC - GER (ENG SUBS) [BRSHNKV] Torrent




Hey Friend! Like us!