Darkest Hour 2017 Movies 720p BluRay x264 5 1 ESubs with Sample ☻rDX☻

Darkest Hour 2017 Movies 720p BluRay x264 5 1 ESubs with Sample ☻rDX☻ Torrent
Size: 953.8 MB
Language: English
Uploader: nehalpuja

Download Darkest Hour 2017 Movies 720p BluRay x264 5 1 ESubs with Sample ☻rDX☻ Torrent torrent video for PC, tablet, MAC, IPhone or Android device.
Darkest Hour 2017 Movies 720p BluRay x264 5 1 ESubs with Sample ☻rDX☻ Torrent For Torrent download Link. Scroll down!.


MOVIE TRAILER BELLOW.


Darkest Hour 2017 Movies 720p BluRay x264 5.1 ESubs with Sample ☻rDX☻
===============================================================================================

SCREEN SHOTS:



or

http://postimage.co.nr/2018/2/computers/1.html

File size : 943 MiB
Duration : 2 h 4 min
Overall bit rate : 1 056 kb/s
Movie name : Darkest Hour 2017 Movies 720p BluRay x264 5.1 ESubs ☻rDX☻

Video
ID : 2
Format : AVC
Format/Info : Advanced Video Codec
Format profile : [email protected]
Format settings, CABAC : Yes
Format settings, ReFrames : 3 frames
Codec ID : V_MPEG4/ISO/AVC
Duration : 2 h 4 min
Bit rate : 651 kb/s
Width : 1 280 pixels
Height : 688 pixels
Display aspect ratio : 1.85:1
Frame rate mode : Constant
Frame rate : 23.976 (24000/1001) FPS
Color space : YUV
Chroma subsampling : 4:2:0
Bit depth : 8 bits
Scan type : Progressive
Bits/(Pixel*Frame) : 0.031
Stream size : 581 MiB (62%)
Title : ☻rDX☻
Default : Yes
Forced : No
Color range : Limited
Color primaries : BT.709
Transfer characteristics : BT.709
Matrix coefficients : BT.709

Audio
ID : 1
Format : AC-3
Format/Info : Audio Coding 3
Mode extension : CM (complete main)
Format settings, Endianness : Big
Codec ID : A_AC3
Duration : 2 h 4 min
Bit rate mode : Constant
Bit rate : 384 kb/s
Channel(s) : 6 channels
Channel positions : Front: L C R, Side: L R, LFE
Sampling rate : 48.0 kHz
Frame rate : 31.250 FPS (1536 spf)
Bit depth : 16 bits
Compression mode : Lossy
Stream size : 343 MiB (36%)
Title : ☻rDX☻
Default : Yes
Forced : No

Text
ID : 3
Format : UTF-8
Codec ID : S_TEXT/UTF8
Codec ID/Info : UTF-8 Plain Text
Title : ☻rDX☻
Default : Yes
Forced : No



IMDB : http://www.imdb.com/title/tt4555426

Darkest Hour 2017 Movies 720p BluRay x264 5 1 ESubs with Sample ☻rDX☻ Torrent




Hey Friend! Like us!