Descendants 2: It's Going Down 1080p WEB-DL DD5 1 H 264-LAZY

Descendants 2: It's Going Down 1080p WEB-DL DD5 1 H 264-LAZY Torrent
Size: 894.5 MB
Language: English
Uploader: LazyRips

Download Descendants 2: It's Going Down 1080p WEB-DL DD5 1 H 264-LAZY Torrent torrent video for PC, tablet, MAC, IPhone or Android device.
Descendants 2: It's Going Down 1080p WEB-DL DD5 1 H 264-LAZY Torrent For Torrent download Link. Scroll down!.


MOVIE TRAILER BELLOW.


Descendants 2 It's Going Down:

Video
ID : 1
Format : AVC
Format/Info : Advanced Video Codec
Format profile :
[email protected]
Format settings, CABAC : Yes
Format settings, ReFrames : 4 frames
Codec ID : V_MPEG4/ISO/AVC
Duration : 22 min 34 s
Bit rate : 5 154 kb/s
Width : 1 920 pixels
Height : 1 080 pixels
Display aspect ratio : 16:9
Frame rate mode : Constant
Frame rate : 23.976 (24000/1001) FPS
Color space : YUV
Chroma subsampling : 4:2:0
Bit depth : 8 bits
Scan type : Progressive
Bits/(Pixel*Frame) : 0.104
Stream size : 832 MiB (93%)
Language : English
Default : Yes
Forced : No
Color range : Limited
Color primaries : BT.709
Transfer characteristics : BT.709
Matrix coefficients : BT.709

Audio
ID : 2
Format : AC-3
Format/Info : Audio Coding 3
Mode extension : CM (complete main)
Format settings, Endianness : Big
Codec ID : A_AC3
Duration : 22 min 34 s
Bit rate mode : Constant
Bit rate : 384 kb/s
Channel(s) : 6 channels
Channel positions : Front: L C R, Side: L R, LFE
Sampling rate : 48.0 kHz
Frame rate : 31.250 FPS (1536 spf)
Bit depth : 16 bits
Compression mode : Lossy
Delay relative to video : -42 ms
Stream size : 62.0 MiB (7%)
Language : English
Default : Yes
Forced : No

Text
ID : 3
Format : UTF-8
Codec ID : S_TEXT/UTF8
Codec ID/Info : UTF-8 Plain Text
Duration : 22 min 30 s
Bit rate : 194 b/s
Count of elements : 646
Stream size : 32.0 KiB (0%)
Language : English
Default : Yes
Forced : No

Screenshots:


Descendants 2: It's Going Down 1080p WEB-DL DD5 1 H 264-LAZY Torrent




Hey Friend! Like us!