District 9 1080p x265 DTS mp4 bluegate

District 9 1080p x265 DTS mp4 bluegate Torrent
Size: 6.5 GB
Language: English
Uploader: bluegate

Download District 9 1080p x265 DTS mp4 bluegate Torrent torrent video for PC, tablet, MAC, IPhone or Android device.
District 9 1080p x265 DTS mp4 bluegate Torrent For Torrent download Link. Scroll down!.


MOVIE TRAILER BELLOW.


District 9 1080p x265 DTS mp4 bluegate

General
Format : MPEG-4
Format profile : Base Media
Codec ID : isom (isom/iso2/mp41)
File size : 6.55 GiB
Duration : 1h 52mn
Overall bit rate : 8 336 Kbps
Encoded date : UTC 2017-12-07 07:49:13
Tagged date : UTC 2017-12-07 07:49:13
Writing application : Lavf58.2.103

Video
ID : 1
Format : HEVC
Format/Info : High Efficiency Video Coding
Format profile :
[email protected]@Main
Codec ID : hev1
Codec ID/Info : High Efficiency Video Coding
Duration : 1h 52mn
Bit rate : 4 446 Kbps
Width : 1 920 pixels
Height : 1 080 pixels
Display aspect ratio : 16:9
Frame rate mode : Constant
Frame rate : 23.976 (24000/1001) fps
Color space : YUV
Chroma subsampling : 4:2:0
Bit depth : 8 bits
Scan type : Progressive
Bits/(Pixel*Frame) : 0.089
Stream size : 3.49 GiB (53%)
Writing library : x265 2.6+5-b1dfa312234e:[Windows][GCC 7.2.0][64 bit] 8bit
Encoded date : UTC 2017-12-07 07:49:13
Tagged date : UTC 2017-12-07 07:49:13

Audio
ID : 2
Format : DTS
Format/Info : Digital Theater Systems
Format profile : MA / Core
Mode : 16
Format settings, Endiann : Big
Codec ID : A9
Duration : 1h 52mn
Bit rate mode : Variable / Constant
Bit rate : Unknown / 1 509 Kbps
Nominal bit rate : 3 882 Kbps
Channel(s) : 2 channels
Channel(s)_Original : 6 channels
Channel positions : Front: L C R, Side: L R, LFE
Sampling rate : 48.0 KHz
Frame rate : 93.750 fps (512 spf)
Bit depth : 24 bits
Compression mode : Lossless / Lossy
Stream size : 3.05 GiB (47%)
Language : English
Default : Yes
Alternate group : 1
Encoded date : UTC 2017-12-07 07:49:13
Tagged date : UTC 2017-12-07 07:49:13



District 9 1080p x265 DTS mp4 bluegate Torrent




Hey Friend! Like us!