Escape from Alcatraz 1979 720p BluRay x264-x0r

Escape from Alcatraz 1979 720p BluRay x264-x0r Torrent
Size: 2.4 GB
Language: English
Uploader: showstopper

Download Escape from Alcatraz 1979 720p BluRay x264-x0r Torrent torrent video for PC, tablet, MAC, IPhone or Android device.
Escape from Alcatraz 1979 720p BluRay x264-x0r Torrent For Torrent download Link. Scroll down!.


MOVIE TRAILER BELLOW.


Escape.from.Alcatraz.1979.720p.BluRay.x264-x0r

ImDb:
http://www.imdb.com/title/tt0079116



Complete name : Escape.from.Alcatraz.1979.720p.BluRay.x264-x0r.mkv
Format : Matroska
Format version : Version 4 / Version 2
File size : 2.35 GiB
Duration : 1 h 51 min
Overall bit rate : 3 010 kb/s
Movie name : Escape.from.Alcatraz.1979.720p.BluRay.x264-x0r
Encoded date : UTC 2017-10-18 12:56:27
Writing application : mkvmerge v7.7.0 ('Six Voices') 64bit built on Mar 1 2015 01:50:05
Writing library : libebml v1.3.1 + libmatroska v1.4.2

Video
ID : 1
Format : AVC
Format/Info : Advanced Video Codec
Format profile : [email protected]
Format settings, CABAC : Yes
Format settings, ReFrames : 9 frames
Codec ID : V_MPEG4/ISO/AVC
Duration : 1 h 51 min
Bit rate : 2 560 kb/s
Width : 1 280 pixels
Height : 720 pixels
Display aspect ratio : 16:9
Frame rate mode : Constant
Frame rate : 23.976 FPS
Color space : YUV
Chroma subsampling : 4:2:0
Bit depth : 8 bits
Scan type : Progressive
Bits/(Pixel*Frame) : 0.116
Stream size : 2.00 GiB (85%)
Writing library : x264 core 148 r2643 5c65704
Encoding settings : cabac=1 / ref=9 / deblock=1:-2:-2 / analyse=0x3:0x113 / me=umh / subme=9 / psy=1 / psy_rd=1.00:0.25 / mixed_ref=1 / me_range=32 / chroma_me=1 / trellis=2 / 8x8dct=1 / cqm=0 / deadzone=21,11 / fast_pskip=1 / chroma_qp_offset=-4 / threads=12 / lookahead_threads=1 / sliced_threads=0 / nr=0 / decimate=1 / interlaced=0 / bluray_compat=0 / constrained_intra=0 / bframes=5 / b_pyramid=2 / b_adapt=2 / b_bias=0 / direct=3 / weightb=1 / open_gop=0 / weightp=2 / keyint=240 / keyint_min=24 / scenecut=40 / intra_refresh=0 / rc_lookahead=40 / rc=2pass / mbtree=1 / bitrate=2560 / ratetol=1.0 / qcomp=0.60 / qpmin=0 / qpmax=69 / qpstep=4 / cplxblur=20.0 / qblur=0.5 / vbv_maxrate=20000 / vbv_bufsize=20000 / nal_hrd=none / filler=0 / ip_ratio=1.40 / aq=1:1.00
Language : English
Default : Yes
Forced : No
Color range : Limited
Color primaries : BT.709
Transfer characteristics : BT.709
Matrix coefficients : BT.709

Audio
ID : 2
Format : AC-3
Format/Info : Audio Coding 3
Format settings, Endianness : Big
Codec ID : A_AC3
Duration : 1 h 51 min
Bit rate mode : Constant
Bit rate : 448 kb/s
Channel(s) : 6 channels
Channel positions : Front: L C R, Side: L R, LFE
Sampling rate : 48.0 kHz
Frame rate : 31.250 FPS (1536 spf)
Bit depth : 16 bits
Compression mode : Lossy
Delay relative to video : -5 ms
Stream size : 359 MiB (15%)
Title : Surround
Language : English
Service kind : Complete Main
Default : Yes
Forced : No

Text
ID : 3
Format : UTF-8
Codec ID : S_TEXT/UTF8
Codec ID/Info : UTF-8 Plain Text
Duration : 1 h 43 min
Bit rate : 27 b/s
Count of elements : 597
Stream size : 21.0 KiB (0%)
Language : English
Default : Yes
Forced : No

Menu
00:00:00.000 : :Chapter 1
00:08:16.871 : :Chapter 2
00:12:34.545 : :Chapter 3
00:17:16.202 : :Chapter 4
00:19:09.398 : :Chapter 5
00:23:41.337 : :Chapter 6
00:27:56.592 : :Chapter 7
00:35:26.207 : :Chapter 8
00:37:32.125 : :Chapter 9
00:47:51.702 : :Chapter 10
01:00:10.816 : :Chapter 11
01:11:42.965 : :Chapter 12
01:16:55.945 : :Chapter 13
01:25:25.704 : :Chapter 14
01:30:44.022 : :Chapter 15
01:33:06.081 : :Chapter 16
01:45:47.675 : :Chapter 17






Click To View Screenshot

Click To View Screenshot

Click To View Screenshot

Share on facebook


Escape from Alcatraz 1979 720p BluRay x264-x0r Torrent
Any comments or an Thank you would be appreciated. You also can do requests here in comments.




Hey Friend! Like us!