First Kill(2017)1080p Blu-Ray Rip[DaScubaDude]

First Kill(2017)1080p Blu-Ray Rip[DaScubaDude] Torrent
Size: 2.9 GB
Language: English
Uploader: dascubadude

Download First Kill(2017)1080p Blu-Ray Rip[DaScubaDude] Torrent torrent video for PC, tablet, MAC, IPhone or Android device.
First Kill(2017)1080p Blu-Ray Rip[DaScubaDude] Torrent For Torrent download Link. Scroll down!.


MOVIE TRAILER BELLOW.



[youtube]URWbZOtJQZs[/youtube]
First Kill (2017)
R | 1h 37min | Action, Crime, Thriller | 21 July 2017 (USA)
A Wall Street broker is forced to evade a police chief investigating a bank robbery as he attempts to recover the stolen money in exchange for his son's life.
Director: Steven C. Miller
Writer: Nick Gordon
Stars: Bruce Willis, Hayden Christensen, Ty Shelton

General
Unique ID : 248261312938850193860414780682413311809 (0xBAC563C0E698FFA3853388E30F808741)
Complete name : FIRST_KILL\FIRST_KILL.Title800.mkv
Format : Matroska
Format version : Version 2
File size : 2.92 GiB
Duration : 1 h 41 min
Overall bit rate mode : Variable
Overall bit rate : 4 114 kb/s
Movie name : FIRST_KILL.Title800
Encoded date : UTC 2018-01-30 20:47:27
Writing application : DVDFab 10.0.7.7
Writing library : libebml v1.3.4 + libmatroska v1.4.5

Video
ID : 1
Format : AVC
Format/Info : Advanced Video Codec
Format profile :
[email protected]
Format settings, CABAC : Yes
Format settings, RefFrames : 2 frames
Format settings, GOP : M=3, N=24
Codec ID : V_MPEG4/ISO/AVC
Duration : 1 h 41 min
Bit rate mode : Variable
Bit rate : 3 619 kb/s
Maximum bit rate : 5 524 kb/s
Width : 1 920 pixels
Height : 800 pixels
Display aspect ratio : 2.40:1
Frame rate mode : Constant
Frame rate : 23.976 (24000/1001) FPS
Color space : YUV
Chroma subsampling : 4:2:0
Bit depth : 8 bits
Scan type : Progressive
Bits/(Pixel*Frame) : 0.098
Stream size : 2.57 GiB (88%)
Default : Yes
Forced : No

Audio
ID : 2
Format : AC-3
Format/Info : Audio Coding 3
Mode extension : CM (complete main)
Format settings, Endianness : Big
Codec ID : A_AC3
Duration : 1 h 41 min
Bit rate mode : Constant
Bit rate : 448 kb/s
Channel(s) : 6 channels
Channel positions : Front: L C R, Side: L R, LFE
Sampling rate : 48.0 kHz
Frame rate : 31.250 FPS (1536 spf)
Bit depth : 16 bits
Compression mode : Lossy
Stream size : 326 MiB (11%)
Language : English
Default : Yes
Forced : No

Text #1
ID : 3
Format : PGS
Codec ID : S_HDMV/PGS
Codec ID/Info : Picture based subtitle format used on BDs/HD-DVDs
Duration : 1 h 32 min
Bit rate : 23.9 kb/s
Count of elements : 1976
Stream size : 15.8 MiB (1%)
Language : English
Default : No
Forced : No

Text #2
ID : 4
Format : PGS
Codec ID : S_HDMV/PGS
Codec ID/Info : Picture based subtitle format used on BDs/HD-DVDs
Duration : 1 h 34 min
Bit rate : 26.0 kb/s
Count of elements : 2258
Stream size : 17.6 MiB (1%)
Language : English
Default : No
Forced : No

Menu
00:00:00.000 : en:(01)00:00:00:000
00:06:17.960 : en:(02)00:06:17:960
00:12:44.013 : en:(03)00:12:44:013
00:18:11.048 : en:(04)00:18:11:048
00:27:18.303 : en:(05)00:27:18:303
00:31:22.672 : en:(06)00:31:22:672
00:36:54.337 : en:(07)00:36:54:337
00:42:25.042 : en:(08)00:42:25:042
00:47:59.960 : en:(09)00:47:59:960
00:54:46.992 : en:(10)00:54:46:992
00:59:12.423 : en:(11)00:59:12:423
01:06:39.537 : en:(12)01:06:39:537
01:12:08.907 : en:(13)01:12:08:907
01:18:46.596 : en:(14)01:18:46:596
01:24:15.800 : en:(15)01:24:15:800
01:31:56.093 : en:(16)01:31:56:093

First Kill(2017)1080p Blu-Ray Rip[DaScubaDude] Torrent




Hey Friend! Like us!