Glastonbury 2017 alt-J (720p HD)

Glastonbury 2017 alt-J (720p HD) Torrent
Size: 1.1 GB
Language: English
Uploader: ElsonRoa

Download Glastonbury 2017 alt-J (720p HD) Torrent torrent video for PC, tablet, MAC, IPhone or Android device.
Glastonbury 2017 alt-J (720p HD) Torrent For Torrent download Link. Scroll down!.


MOVIE TRAILER BELLOW.


Glastonbury 2017 alt-J (720p HD)

Back in our lives with their third album, indie trio alt-J are back at Worthy Farm.

First broadcast: 23-25 June 2017
Duration: 68 minutes



Media info:-
General
Format : MPEG-4
Format profile : Base Media
Codec ID : isom (isom/iso2/avc1/mp41)
File size : 1.14 GiB
Duration : 1h 8mn
Overall bit rate mode : Variable
Overall bit rate : 2 375 Kbps
Writing application : Lavf57.25.100

Video
ID : 1
Format : AVC
Format/Info : Advanced Video Codec
Format profile : [email protected]
Format settings, CABAC : Yes
Format settings, ReFrames : 2 frames
Codec ID : avc1
Codec ID/Info : Advanced Video Coding
Duration : 1h 8mn
Bit rate mode : Variable
Bit rate : 2 276 Kbps
Maximum bit rate : 3 500 Kbps
Width : 1 280 pixels
Height : 720 pixels
Display aspect ratio : 16:9
Frame rate mode : Constant
Frame rate : 25.000 fps
Color space : YUV
Chroma subsampling : 4:2:0
Bit depth : 8 bits
Scan type : Progressive
Bits/(Pixel*Frame) : 0.099
Stream size : 1.09 GiB (96%)

Audio
ID : 2
Format : AAC
Format/Info : Advanced Audio Codec
Format profile : LC
Codec ID : 40
Duration : 1h 8mn
Bit rate mode : Variable
Bit rate : 93.5 Kbps
Maximum bit rate : 106 Kbps
Channel(s) : 2 channels
Channel positions : Front: L R
Sampling rate : 48.0 KHz
Frame rate : 46.875 fps (1024 spf)
Compression mode : Lossy
Stream size : 45.9 MiB (4%)



Glastonbury 2017 alt-J (720p HD) Torrent




Hey Friend! Like us!