Glastonbury 2017 BBK (720p HD)

Glastonbury 2017 BBK (720p HD) Torrent
Size: 1.0 GB
Language: English
Uploader: ElsonRoa

Download Glastonbury 2017 BBK (720p HD) Torrent torrent video for PC, tablet, MAC, IPhone or Android device.
Glastonbury 2017 BBK (720p HD) Torrent For Torrent download Link. Scroll down!.


MOVIE TRAILER BELLOW.


Glastonbury 2017 BBK (720p HD)

Boy Better Know aka JME and Skepta stormed the Other Stage and made history.

First broadcast: 23-25 June 2017
Duration: 1 hour



Media info:-
General
Format : MPEG-4
Format profile : Base Media
Codec ID : isom (isom/iso2/avc1/mp41)
File size : 1.02 GiB
Duration : 1h 1mn
Overall bit rate mode : Variable
Overall bit rate : 2 356 Kbps
Writing application : Lavf57.25.100

Video
ID : 1
Format : AVC
Format/Info : Advanced Video Codec
Format profile : [email protected]
Format settings, CABAC : Yes
Format settings, ReFrames : 2 frames
Codec ID : avc1
Codec ID/Info : Advanced Video Coding
Duration : 1h 1mn
Bit rate mode : Variable
Bit rate : 2 257 Kbps
Maximum bit rate : 3 500 Kbps
Width : 1 280 pixels
Height : 720 pixels
Display aspect ratio : 16:9
Frame rate mode : Constant
Frame rate : 25.000 fps
Color space : YUV
Chroma subsampling : 4:2:0
Bit depth : 8 bits
Scan type : Progressive
Bits/(Pixel*Frame) : 0.098
Stream size : 1 001 MiB (96%)

Audio
ID : 2
Format : AAC
Format/Info : Advanced Audio Codec
Format profile : LC
Codec ID : 40
Duration : 1h 1mn
Bit rate mode : Variable
Bit rate : 96.0 Kbps
Channel(s) : 2 channels
Channel positions : Front: L R
Sampling rate : 48.0 KHz
Frame rate : 46.875 fps (1024 spf)
Compression mode : Lossy
Stream size : 41.4 MiB (4%)


Glastonbury 2017 BBK (720p HD) Torrent




Hey Friend! Like us!