Hampstead 2017 1080p BRRip x264 AAC MSubS - Hon3y

Hampstead 2017 1080p BRRip x264 AAC MSubS - Hon3y Torrent
Size: 2.0 GB
Language: English
Uploader: Hon3yHD

Download Hampstead 2017 1080p BRRip x264 AAC MSubS - Hon3y Torrent torrent video for PC, tablet, MAC, IPhone or Android device.
Hampstead 2017 1080p BRRip x264 AAC MSubS - Hon3y Torrent For Torrent download Link. Scroll down!.


MOVIE TRAILER BELLOW.





Hampstead 2017 1080p BRRip x264 AAC MSubS - Hon3y

Source: BLOW
Format : Matroska
Format version : Version 4 / Version 2
File size : 2.02 GiB
Duration : 1 h 42 min
Overall bit rate : 2 822 kb/s
Movie name : Hampstead 2017 - Hon3y


Video
ID : 1
Format : AVC
Format/Info : Advanced Video Codec
Format profile :
[email protected]
Format settings, CABAC : Yes
Format settings, RefFrames : 5 frames
Codec ID : V_MPEG4/ISO/AVC
Duration : 1 h 42 min
Bit rate : 2 500 kb/s
Width : 1 920 pixels
Height : 800 pixels
Display aspect ratio : 2.40:1
Frame rate mode : Constant
Frame rate : 24.000 FPS
Language : English
Default : Yes
Forced : No
Color range : Limited
Color primaries : BT.709
Transfer characteristics : BT.709
Matrix coefficients : BT.709

Audio
ID : 2
Format : AAC
Format/Info : Advanced Audio Codec
Format profile : LC
Codec ID : A_AAC
Duration : 1 h 42 min
Bit rate : 319 kb/s
Channel(s) : 6 channels
Channel positions : Front: L C R, Side: L R, LFE
Sampling rate : 48.0 kHz
Frame rate : 46.875 FPS (1024 SPF)
Compression mode : Lossy
Delay relative to video : -21 ms
Stream size : 234 MiB (11%)
Title : Surround
Language : English
Default : Yes
Forced : No

Text #1
ID : 3
Format : UTF-8
Codec ID : S_TEXT/UTF8
Codec ID/Info : UTF-8 Plain Text
Duration : 1 h 37 min
Bit rate : 68 b/s
Count of elements : 1457
Stream size : 49.1 KiB (0%)
Language : English
Default : Yes
Forced : No

Text #2
ID : 4
Format : UTF-8
Codec ID : S_TEXT/UTF8
Codec ID/Info : UTF-8 Plain Text
Duration : 1 h 41 min
Bit rate : 54 b/s
Count of elements : 910
Stream size : 40.6 KiB (0%)
Language : Swedish
Default : No
Forced : No

Text #3
ID : 5
Format : UTF-8
Codec ID : S_TEXT/UTF8
Codec ID/Info : UTF-8 Plain Text
Duration : 1 h 40 min
Bit rate : 47 b/s
Count of elements : 908
Stream size : 34.7 KiB (0%)
Language : Norwegian
Default : No
Forced : No

Text #4
ID : 6
Format : UTF-8
Codec ID : S_TEXT/UTF8
Codec ID/Info : UTF-8 Plain Text
Duration : 1 h 40 min
Bit rate : 40 b/s
Count of elements : 908
Stream size : 29.6 KiB (0%)
Language : Finnish
Default : No
Forced : No

Text #5
ID : 7
Format : UTF-8
Codec ID : S_TEXT/UTF8
Codec ID/Info : UTF-8 Plain Text
Duration : 1 h 41 min
Bit rate : 50 b/s
Count of elements : 909
Stream size : 37.1 KiB (0%)
Language : Danish
Default : No
Forced : No

Menu
00:00:00.000 : :00:00:00.000
00:11:07.417 : :00:11:07.417
00:22:46.000 : :00:22:46.000
00:37:14.042 : :00:37:14.042
00:49:47.250 : :00:49:47.250
01:00:58.542 : :01:00:58.542
01:12:52.708 : :01:12:52.708
01:26:15.125 : :01:26:15.125

Hampstead 2017 1080p BRRip x264 AAC MSubS - Hon3y Torrent




Hey Friend! Like us!