Judge Archer 2012 720p Esub HD Dual Audio English Hindi Chinese GOPISAHI

Judge Archer 2012 720p Esub HD Dual Audio English Hindi Chinese GOPISAHI Torrent
Size: 671.0 MB
Language: English
Uploader: PENDUDESI

Download Judge Archer 2012 720p Esub HD Dual Audio English Hindi Chinese GOPISAHI Torrent torrent video for PC, tablet, MAC, IPhone or Android device.
Judge Archer 2012 720p Esub HD Dual Audio English Hindi Chinese GOPISAHI Torrent For Torrent download Link. Scroll down!.


MOVIE TRAILER BELLOW.



Format : Matroska
Format version : Version 4 / Version 2
File size : 671 MiB
Duration : 1 h 31 min
Overall bit rate : 1 025 kb/s
Movie name : Judge Archer 2012 GOPISAHI

Video
Format : AVC
Format settings, RefFrames : 16 frames
Codec ID : V_MPEG4/ISO/AVC
Duration : 1 h 31 min
Bit rate : 800 kb/s
Width : 1 280 pixels
Height : 554 pixels
Display aspect ratio : 2.35:1
Frame rate mode : Constant
Frame rate : 24.000 FPS
Color space : YUV
Chroma subsampling : 4:2:0
Bit depth : 8 bits
Scan type : Progressive
Bits/(Pixel*Frame) : 0.047
Stream size : 524 MiB (78%)
Title : GOPISAHI
Writing library : x264 core 152 r2851 ba24899
Language : English

Audio #1
Format : AAC
Duration : 1 h 31 min
Bit rate : 83.7 kb/s
Channel(s) : 6 channels
Channel positions : Front: L C R, Side: L R, LFE
Sampling rate : 44.1 kHz
Frame rate : 43.066 FPS (1024 SPF)
Stream size : 54.8 MiB (8%)
Title : GOPISAHI
Language : English

Audio #2
Format : AAC
Duration : 1 h 31 min
Bit rate : 89.8 kb/s
Channel(s) : 6 channels
Channel positions : Front: L C R, Side: L R, LFE
Sampling rate : 44.1 kHz
Frame rate : 43.066 FPS (1024 SPF)
Stream size : 58.8 MiB (9%)
Title : GOPISAHI
Language : Hindi

Audio #3
Format : AAC
Duration : 1 h 31 min
Bit rate : 48.0 kb/s
Channel(s) : 6 channels
Channel positions : Front: L C R, Side: L R, LFE
Sampling rate : 44.1 kHz
Frame rate : 43.066 FPS (1024 SPF)
Stream size : 31.5 MiB (5%)
Title : GOPISAHI
Language : Chinese

Text
Language : English


Judge Archer 2012 720p Esub HD Dual Audio English Hindi Chinese GOPISAHI Torrent




Hey Friend! Like us!