King Arthur Legend of the Sword 2017 720p 720p HDRiP x264 AC3-MAJESTIC

King Arthur Legend of the Sword 2017 720p 720p HDRiP x264 AC3-MAJESTIC Torrent
Size: 2.8 GB
Language: English
Uploader: showstopper

Download King Arthur Legend of the Sword 2017 720p 720p HDRiP x264 AC3-MAJESTIC Torrent torrent video for PC, tablet, MAC, IPhone or Android device.
King Arthur Legend of the Sword 2017 720p 720p HDRiP x264 AC3-MAJESTIC Torrent For Torrent download Link. Scroll down!.


MOVIE TRAILER BELLOW.


King.Arthur.Legend.of.the.Sword.2017.720p.720p.HDRiP.x264.AC3-MAJESTIC

ImDb:
http://www.imdb.com/title/tt1972591



Complete name : King.Arthur.Legend.of.the.Sword.2017.720p.720p.HDRiP.x264.AC3-MAJESTIC.mkv
Format : Matroska
Format version : Version 4 / Version 2
File size : 2.82 GiB
Duration : 2 h 6 min
Overall bit rate : 3 195 kb/s
Encoded date : UTC 2017-07-25 17:03:28
Writing application : mkvmerge v6.7.0 ('Back to the Ground') 32bit built on Jan 8 2014 15:03:17
Writing library : libebml v1.3.0 + libmatroska v1.4.1
Cover : Yes
Attachments : cover.jpg / cover_land.jpg / small_cover.jpg / small_cover_land.jpg

Video
ID : 1
Format : AVC
Format/Info : Advanced Video Codec
Format profile : [email protected]
Format settings, CABAC : Yes
Format settings, ReFrames : 5 frames
Codec ID : V_MPEG4/ISO/AVC
Duration : 2 h 6 min
Bit rate : 2 810 kb/s
Width : 1 280 pixels
Height : 528 pixels
Display aspect ratio : 2.40:1
Frame rate mode : Constant
Frame rate : 23.976 (24000/1001) FPS
Color space : YUV
Chroma subsampling : 4:2:0
Bit depth : 8 bits
Scan type : Progressive
Bits/(Pixel*Frame) : 0.173
Stream size : 2.42 GiB (86%)
Writing library : x264 core 148 r2694 3b70645
Encoding settings : cabac=1 / ref=5 / deblock=1:0:0 / analyse=0x3:0x113 / me=umh / subme=7 / psy=1 / psy_rd=1.00:0.00 / mixed_ref=1 / me_range=32 / chroma_me=1 / trellis=2 / 8x8dct=1 / cqm=0 / deadzone=21,11 / fast_pskip=1 / chroma_qp_offset=-2 / threads=12 / lookahead_threads=2 / sliced_threads=0 / nr=0 / decimate=1 / interlaced=0 / bluray_compat=0 / constrained_intra=0 / bframes=5 / b_pyramid=2 / b_adapt=1 / b_bias=0 / direct=1 / weightb=1 / open_gop=0 / weightp=2 / keyint=250 / keyint_min=23 / scenecut=40 / intra_refresh=0 / rc_lookahead=40 / rc=2pass / mbtree=1 / bitrate=2810 / ratetol=1.0 / qcomp=0.60 / qpmin=0 / qpmax=69 / qpstep=4 / cplxblur=20.0 / qblur=0.5 / vbv_maxrate=6200 / vbv_bufsize=58199 / nal_hrd=none / filler=0 / ip_ratio=1.40 / aq=1:1.00
Default : Yes
Forced : No
Statistics Tags Issue : mkvmerge v9.2.0 ('Photograph') 64bit 2017-07-25 16:24:36 / mkvmerge v6.7.0 ('Back to the Ground') 32bit built on Jan 8 2014 15:03:17 2017-07-25 17:03:28
FromStats_BitRate : 2809265
FromStats_Duration : 02:06:12.106000000
FromStats_FrameCount : 181549
FromStats_StreamSize : 2659006554

Audio
ID : 2
Format : AC-3
Format/Info : Audio Coding 3
Format settings, Endianness : Big
Codec ID : A_AC3
Duration : 2 h 6 min
Bit rate mode : Constant
Bit rate : 384 kb/s
Channel(s) : 6 channels
Channel positions : Front: L C R, Side: L R, LFE
Sampling rate : 48.0 kHz
Frame rate : 31.250 FPS (1536 spf)
Bit depth : 16 bits
Compression mode : Lossy
Stream size : 347 MiB (12%)
Language : English
Service kind : Complete Main
Default : No
Forced : No
Statistics Tags Issue : mkvmerge v9.2.0 ('Photograph') 64bit 2017-07-25 16:24:36 / mkvmerge v6.7.0 ('Back to the Ground') 32bit built on Jan 8 2014 15:03:17 2017-07-25 17:03:28
FromStats_BitRate : 384000
FromStats_Duration : 02:06:12.160000000
FromStats_FrameCount : 236630
FromStats_StreamSize : 363463680

Text
ID : 3
Format : UTF-8
Codec ID : S_TEXT/UTF8
Codec ID/Info : UTF-8 Plain Text
Language : English
Default : No
Forced : No
Statistics Tags Issue : mkvmerge v9.2.0 ('Photograph') 64bit 2017-07-25 16:24:36 / mkvmerge v6.7.0 ('Back to the Ground') 32bit built on Jan 8 2014 15:03:17 2017-07-25 17:03:28
FromStats_BitRate : 43
FromStats_Duration : 02:01:59.547000000
FromStats_FrameCount : 1346
FromStats_StreamSize : 40128

Menu
00:00:00.000 : en:1
00:12:43.000 : en:2
00:21:05.000 : en:3
00:32:32.000 : en:4
00:43:09.000 : en:5
00:56:48.000 : en:6
01:06:48.000 : en:7
01:14:13.000 : en:8
01:23:44.000 : en:9
01:36:37.000 : en:10
01:46:57.000 : en:11
01:58:59.000 : en:12






Click To View Screenshot

Click To View Screenshot

Click To View Screenshot


King Arthur Legend of the Sword 2017 720p 720p HDRiP x264 AC3-MAJESTIC Torrent




Hey Friend! Like us!