Knightfall 1x02 Portaci Il Grail ITA ENG 1080p AMZN WEB-DLMux H 264-Morpheus mkv

Knightfall 1x02 Portaci Il Grail ITA ENG 1080p AMZN WEB-DLMux H 264-Morpheus mkv Torrent
Size: 4.1 GB
Language: English
Uploader: ppb1

Download Knightfall 1x02 Portaci Il Grail ITA ENG 1080p AMZN WEB-DLMux H 264-Morpheus mkv Torrent torrent video for PC, tablet, MAC, IPhone or Android device.
Knightfall 1x02 Portaci Il Grail ITA ENG 1080p AMZN WEB-DLMux H 264-Morpheus mkv Torrent For Torrent download Link. Scroll down!.


MOVIE TRAILER BELLOW.




GIUSEPPEiCV & LITTLELINX
HANNO IL PIACERE DI PRESENTARE


KNIGHTFALL
STAGIONE 1
WEBMUX 1080p
Dual Language ITA - ENG
Sub ITA - ENG
Trovi tutte le nostre serie su
IL CORSARO VERDE
www.icv-crew.org



.: Dati Serie :.

Nazione : Stati Uniti d'America, Repubblica Ceca
Anno : 2017
Genere : drammatico, storico
Stagione 1
Episodi : 10
Durata : 43 min circa
Lingua : ITA - ENG
Cast :
• Tom Cullen: Landry
• Jim Carter: Papa Bonifacio VIII
• Pádraic Delaney: Gawain
• Simon Merrells: Tancrede
• Julian Ovenden: Guglielmo di Nogaret
• Olivia Ross: Giovanna I di Navarra
• Ed Stoppard: Filippo IV di Francia
• Sabrina Bartlett: Isabella di Francia
• Bobby Schofield: Parsifal
• Sarah-Sofie Boussnina: Adelina
• Nasser Memarzia: Draper
• Sam Hazeldine: Godfrey



A look at the final days of Knights Templar during the 14th century.

Mistero, fascino e curiosità. I cavalieri templari nei secoli hanno mantenuto un alone di segreto intorno alla loro storia: dalle battaglie in Terra Santa ai loro riti, dalla crescita del loro potere e delle loro ricchezze fino alla persecuzione che ha portato alla scomparsa dell’ordine.

Knightfall, la nuova serie di History, entra nell’oscuro mondo clandestino di questa leggendaria confraternita di monaci guerrieri, che si rifugia in Francia, dopo la sconfitta nella battaglia di San Giovanni d’Acri.

Durante il regno di Filippo IV, Landry e i suoi cavalieri si impegnano nella missione più importante affidata all’ordine: ritrovare e proteggere il Sacro Graal.

Potere, fede, sentimenti, interessi personali ed economici si intrecciano nelle relazioni tra il re, la Chiesa e i templari.
Una storia che non è mai stata completamente raccontata e che adesso arriva su History

.: Screenshot :.




.: Caratteristiche Tecniche :.



[spoiler]
Knightfall.1x01.Saprai.Cosa.Fare.ITA.ENG.1080p.WEBMux.H264-Morpheus.mkv
Format                                   : Matroska
Format version                           : Version 4 / Version 2
File size                                : 4.01 GiB
Duration                                 : 42mn 31s
Overall bit rate mode                    : Variable
Overall bit rate                         : 13.5 Mbps
Encoded date                             : UTC 2017-12-13 22:16:21
Writing application                      : mkvmerge v7.6.0 ('Garden of Dreams') 64bit built on Feb  8 2015 15:12:28
Writing library                          : libebml v1.3.1 + libmatroska v1.4.2
DURATION                                 : 00:42:31.616000000
NUMBER_OF_FRAMES                         : 79738
NUMBER_OF_BYTES                          : 122477568
_STATISTICS_WRITING_APP                  : mkvmerge v7.6.0 ('Garden of Dreams') 64bit built on Feb  8 2015 15:12:28
_STATISTICS_WRITING_DATE_UTC             : 2017-12-13 22:16:21
_STATISTICS_TAGS                         : BPS DURATION NUMBER_OF_FRAMES NUMBER_OF_BYTES

Video
ID                                       : 1
Format                                   : AVC
Format/Info                              : Advanced Video Codec
Format profile                           : [email protected]
Format settings, CABAC                   : Yes
Format settings, ReFrames                : 4 frames
Codec ID                                 : V_MPEG4/ISO/AVC
Duration                                 : 42mn 31s
Bit rate mode                            : Variable
Bit rate                                 : 12.7 Mbps
Maximum bit rate                         : 15.0 Mbps
Width                                    : 1 920 pixels
Height                                   : 1 080 pixels
Display aspect ratio                     : 16:9
Frame rate                               : 25.000 fps
Original frame rate                      : 23.976 fps
Color space                              : YUV
Chroma subsampling                       : 4:2:0
Bit depth                                : 8 bits
Scan type                                : Progressive
Bits/(Pixel*Frame)                       : 0.244
Stream size                              : 3.76 GiB (94%)
Language                                 : English
Default                                  : Yes
Forced                                   : No
Color primaries                          : BT.709-5, BT.1361, IEC 61966-2-4, SMPTE RP177
Transfer characteristics                 : BT.709-5, BT.1361
Matrix coefficients                      : BT.709-5, BT.1361, IEC 61966-2-4 709, SMPTE RP177

Audio #1
ID                                       : 2
Format                                   : AC-3
Format/Info                              : Audio Coding 3
Mode extension                           : CM (complete main)
Codec ID                                 : A_AC3
Duration                                 : 42mn 31s
Bit rate mode                            : Constant
Bit rate                                 : 192 Kbps
Channel(s)                               : 2 channels
Channel positions                        : Front: L R
Sampling rate                            : 48.0 KHz
Bit depth                                : 16 bits
Compression mode                         : Lossy
Stream size                              : 58.4 MiB (1%)
Title                                    : ITA
Language                                 : Italian
Default                                  : Yes
Forced                                   : Yes

Audio #2
ID                                       : 3
Format                                   : AC-3
Format/Info                              : Audio Coding 3
Mode extension                           : CM (complete main)
Codec ID                                 : A_AC3
Duration                                 : 42mn 31s
Bit rate mode                            : Constant
Bit rate                                 : 384 Kbps
Channel(s)                               : 2 channels
Channel positions                        : Front: L R
Sampling rate                            : 48.0 KHz
Bit depth                                : 16 bits
Compression mode                         : Lossy
Stream size                              : 117 MiB (3%)
Title                                    : ENG
Language                                 : English
Default                                  : No
Forced                                   : No

Text #1
ID                                       : 4
Format                                   : UTF-8
Codec ID                                 : S_TEXT/UTF8
Codec ID/Info                            : UTF-8 Plain Text
Title                                    : ITA - Forced
Language                                 : Italian
Default                                  : Yes
Forced                                   : Yes

Text #2
ID                                       : 5
Format                                   : UTF-8
Codec ID                                 : S_TEXT/UTF8
Codec ID/Info                            : UTF-8 Plain Text
Language                                 : Italian
Default                                  : No
Forced                                   : No

Text #3
ID                                       : 6
Format                                   : UTF-8
Codec ID                                 : S_TEXT/UTF8
Codec ID/Info                            : UTF-8 Plain Text
Language                                 : English
Default                                  : No
Forced                                   : No

[/spoiler]

.: Ringraziamenti :.




RESTATE IN SEED ALTRIMENTI






Knightfall 1x02 Portaci Il Grail ITA ENG 1080p AMZN WEB-DLMux H 264-Morpheus mkv Torrent




Hey Friend! Like us!