Kubo and the Two Strings 2016 720p Esub BlyRay Dual Audio English Hindi GOPISAHI

Kubo and the Two Strings 2016 720p Esub BlyRay  Dual Audio English Hindi GOPISAHI Torrent
Size: 563.2 MB
Language: English
Uploader: PENDUDESI

Download Kubo and the Two Strings 2016 720p Esub BlyRay Dual Audio English Hindi GOPISAHI Torrent torrent video for PC, tablet, MAC, IPhone or Android device.
Kubo and the Two Strings 2016 720p Esub BlyRay Dual Audio English Hindi GOPISAHI Torrent For Torrent download Link. Scroll down!.


MOVIE TRAILER BELLOW.



Format : Matroska
Format version : Version 4 / Version 2
File size : 563 MiB
Duration : 1 h 41 min
Overall bit rate : 775 kb/s
Movie name : Kubo and the Two Strings 2016 GOPISAHI

Video
ID : 1
Format : AVC
Format/Info : Advanced Video Codec
Format profile :
[email protected]
Format settings : CABAC / 16 Ref Frames
Format settings, CABAC : Yes
Format settings, ReFrames : 16 frames
Codec ID : V_MPEG4/ISO/AVC
Duration : 1 h 41 min
Bit rate : 600 kb/s
Width : 1 280 pixels
Height : 538 pixels
Display aspect ratio : 2.40:1
Original display aspect ratio : 2.40:1
Frame rate mode : Constant
Frame rate : 23.976 (24000/1001) FPS
Color space : YUV
Chroma subsampling : 4:2:0
Bit depth : 8 bits
Scan type : Progressive
Bits/(Pixel*Frame) : 0.036
Stream size : 436 MiB (77%)
Title : GOPISAHI
Writing library : x264 core 155 r2893 b00bcaf

Audio #1
ID : 3
Format : AAC
Format/Info : Advanced Audio Codec
Format profile : LC
Codec ID : A_AAC-2
Duration : 1 h 41 min
Bit rate : 87.4 kb/s
Channel(s) : 6 channels
Channel positions : Front: L C R, Side: L R, LFE
Sampling rate : 44.1 kHz
Frame rate : 43.066 FPS (1024 SPF)
Compression mode : Lossy
Stream size : 63.5 MiB (11%)
Title : GOPISAHI
Language : Hindi
Default : Yes
Forced : No

Audio #2
ID : 4
Format : AAC
Format/Info : Advanced Audio Codec
Format profile : LC
Codec ID : A_AAC-2
Duration : 1 h 41 min
Bit rate : 84.8 kb/s
Channel(s) : 6 channels
Channel positions : Front: L C R, Side: L R, LFE
Sampling rate : 44.1 kHz
Frame rate : 43.066 FPS (1024 SPF)
Compression mode : Lossy
Stream size : 61.6 MiB (11%)
Title : GOPISAHI
Language : English


Text
Language : English


Kubo and the Two Strings 2016 720p Esub BlyRay  Dual Audio English Hindi GOPISAHI Torrent




Hey Friend! Like us!