La Mante (2017) Season 1 Complete - 720p x265 HEVC - FRE (ENG SUBS) [BRSHNKV]

La Mante (2017) Season 1 Complete - 720p x265 HEVC - FRE (ENG SUBS) [BRSHNKV] Torrent
Size: 2.4 GB
Language: French
Uploader: Baryshnikov

Download La Mante (2017) Season 1 Complete - 720p x265 HEVC - FRE (ENG SUBS) [BRSHNKV] Torrent torrent video for PC, tablet, MAC, IPhone or Android device.
La Mante (2017) Season 1 Complete - 720p x265 HEVC - FRE (ENG SUBS) [BRSHNKV] Torrent For Torrent download Link. Scroll down!.


MOVIE TRAILER BELLOW.


Paris, present days. Police faces with a psychopath whose murders are inspired by Jeanne Deber, known as « The Mantis », a famous serial killer who terrorised the country 20 years ago. Believing it takes one to know one, the Police asks Jeanne Deber to help hunt the copycat. Placed in solitary confinement since her arrest, "The Mantis" agrees at one condition : to deal only with detective Damien Carrot, who happens to be her son and who has broken ties with her mother a long time ago - Damien has no choice. A serial killer is on the loose and could strike anytime, anywhere in Paris.








Same settings for all eps:

Format : MPEG-4
Format profile : Base Media / Version 2
Codec ID : mp42
Overall bit rate mode : Variable
Overall bit rate : 1 021 Kbps
Encoded date : UTC 2018-01-08 23:39:33
Tagged date : UTC 2018-01-08 23:39:33
Writing application : HandBrake 20160211184813-ffd8cb1-master 2016021301

Video
ID : 1
Format : HEVC
Format/Info : High Efficiency Video Coding
Codec ID : hev1
Codec ID/Info : High Efficiency Video Coding
Bit rate : 852 Kbps
Width : 1 280 pixels
Height : 720 pixels
Display aspect ratio : 16:9
Frame rate mode : Constant
Frame rate : 25.000 fps
Color space : YUV
Chroma subsampling : 4:2:0
Bit depth : 10 bits
Bits/(Pixel*Frame) : 0.037
Stream size : 318 MiB (83%)
Writing library : x265 1.9:[Mac OS X][clang 7.0.2][64 bit] 10bit
Encoded date : UTC 2018-01-08 23:39:33
Tagged date : UTC 2018-01-08 23:39:33
Color range : Limited
Color primaries : BT.709
Transfer characteristics : BT.709
Matrix coefficients : BT.709

Audio
ID : 2
Format : AAC
Format/Info : Advanced Audio Codec
Format profile : LC
Codec ID : 40
Bit rate mode : Variable
Bit rate : 163 Kbps
Channel(s) : 2 channels
Channel positions : Front: L R
Sampling rate : 48.0 KHz
Compression mode : Lossy
Stream size : 60.8 MiB (16%)
Title : Stereo / Stereo
Language : French
Encoded date : UTC 2018-01-08 23:39:33
Tagged date : UTC 2018-01-08 23:39:33

La Mante (2017) Season 1 Complete - 720p x265 HEVC - FRE (ENG SUBS) [BRSHNKV] Torrent




Hey Friend! Like us!