Le Bureau des Légendes - Season 3 Complete - 720p x265 HEVC - FRE (ENG SUBS) [BRSHNKV]

Le Bureau des Légendes - Season 3 Complete - 720p x265 HEVC - FRE (ENG SUBS) [BRSHNKV] Torrent
Size: 3.3 GB
Language: French
Uploader: Baryshnikov

Download Le Bureau des Légendes - Season 3 Complete - 720p x265 HEVC - FRE (ENG SUBS) [BRSHNKV] Torrent torrent video for PC, tablet, MAC, IPhone or Android device.
Le Bureau des Légendes - Season 3 Complete - 720p x265 HEVC - FRE (ENG SUBS) [BRSHNKV] Torrent For Torrent download Link. Scroll down!.


MOVIE TRAILER BELLOW.


All episodes encoded with the same settings.
English subtitles downloaded from Addic7ed .com










Tech:

Format : MPEG-4
Format profile : Base Media / Version 2
Codec ID : mp42
Overall bit rate mode : Variable
Overall bit rate : 872 Kbps
Encoded date : UTC 2017-12-05 17:47:45
Tagged date : UTC 2017-12-05 17:47:45
Writing application : HandBrake 20160211184813-ffd8cb1-master 2016021301

Video
ID : 1
Format : HEVC
Format/Info : High Efficiency Video Coding
Format profile : Main
[email protected]@Main
Codec ID : hev1
Codec ID/Info : High Efficiency Video Coding
Bit rate : 701 Kbps
Width : 1 280 pixels
Height : 720 pixels
Display aspect ratio : 16:9
Frame rate mode : Constant
Frame rate : 25.000 fps
Color space : YUV
Chroma subsampling : 4:2:0
Bit depth : 10 bits
Bits/(Pixel*Frame) : 0.030
Stream size : 267 MiB (80%)
Writing library : x265 1.9:[Mac OS X][clang 7.0.2][64 bit] 10bit
Encoded date : UTC 2017-12-05 17:47:45
Tagged date : UTC 2017-12-05 17:47:45
Color range : Limited
Color primaries : BT.709
Transfer characteristics : BT.709
Matrix coefficients : BT.709

Audio
ID : 2
Format : AAC
Format/Info : Advanced Audio Codec
Format profile : LC
Codec ID : 40
Bit rate mode : Variable
Bit rate : 165 Kbps
Channel(s) : 2 channels
Channel positions : Front: L R
Sampling rate : 48.0 KHz
Compression mode : Lossy
Stream size : 62.7 MiB (19%)
Title : Stereo / Stereo
Language : French
Encoded date : UTC 2017-12-05 17:47:45
Tagged date : UTC 2017-12-05 17:47:45

Le Bureau des Légendes - Season 3 Complete - 720p x265 HEVC - FRE (ENG SUBS) [BRSHNKV] Torrent




Hey Friend! Like us!