Let Me Eat Your Pancreas 2017 JAPANESE 1080p BRRip x264 AAC - Hon3y

Let Me Eat Your Pancreas 2017 JAPANESE 1080p BRRip x264 AAC - Hon3y Torrent
Size: 2.3 GB
Language: English
Uploader: Hon3yHD

Download Let Me Eat Your Pancreas 2017 JAPANESE 1080p BRRip x264 AAC - Hon3y Torrent torrent video for PC, tablet, MAC, IPhone or Android device.
Let Me Eat Your Pancreas 2017 JAPANESE 1080p BRRip x264 AAC - Hon3y Torrent For Torrent download Link. Scroll down!.


MOVIE TRAILER BELLOW.





Let Me Eat Your Pancreas 2017 JAPANESE 1080p BRRip x264 AAC - Hon3y

Source: WIKI
Format : Matroska
Format version : Version 4 / Version 2
File size : 2.28 GiB
Duration : 1 h 55 min
Overall bit rate : 2 832 kb/s
Movie name : Let Me Eat Your Pancreas 2017 - Hon3y


Video
ID : 1
Format : AVC
Format/Info : Advanced Video Codec
Format profile :
[email protected]
Format settings, CABAC : Yes
Format settings, RefFrames : 5 frames
Codec ID : V_MPEG4/ISO/AVC
Duration : 1 h 55 min
Bit rate : 2 500 kb/s
Width : 1 920 pixels
Height : 800 pixels
Display aspect ratio : 2.40:1
Frame rate mode : Constant
Frame rate : 23.976 (24000/1001) FPS
Language : Japanese
Default : Yes
Forced : No
Color range : Limited
Color primaries : BT.709
Transfer characteristics : BT.709
Matrix coefficients : BT.709

Audio
ID : 2
Format : AAC
Format/Info : Advanced Audio Codec
Format profile : LC
Codec ID : A_AAC
Duration : 1 h 55 min
Bit rate : 320 kb/s
Channel(s) : 6 channels
Channel positions : Front: L C R, Side: L R, LFE
Sampling rate : 48.0 kHz
Frame rate : 46.875 FPS (1024 SPF)
Compression mode : Lossy
Delay relative to video : -21 ms
Stream size : 264 MiB (11%)
Title : Surround
Language : Japanese
Default : Yes
Forced : No

Text
ID : 3
Format : ASS
Codec ID : S_TEXT/ASS
Codec ID/Info : Advanced Sub Station Alpha
Duration : 1 h 50 min
Bit rate : 78 b/s
Count of elements : 1310
Compression mode : Lossless
Stream size : 63.6 KiB (0%)
Title : Traditional Chinese [SUBPiG]
Language : Chinese
Default : Yes
Forced : No

Menu
00:00:00.000 : :00:00:00.000
00:07:04.758 : :00:07:04.424
00:15:04.028 : :00:15:04.028
00:26:01.935 : :00:26:01.935
00:32:42.961 : :00:32:42.919
00:41:47.630 : :00:41:47.630
00:48:33.536 : :00:48:33.494
00:59:56.593 : :00:59:56.593
01:09:34.379 : :01:09:34.379
01:19:20.214 : :01:19:20.214
01:24:42.703 : :01:24:42.703
01:36:30.451 : :01:36:30.410
01:46:30.342 : :01:46:30.342
01:50:21.698 : :01:50:21.615

http://www.imdb.com/title/tt6078840/

Let Me Eat Your Pancreas 2017 JAPANESE 1080p BRRip x264 AAC - Hon3y Torrent




Hey Friend! Like us!