Madame 2017 720p WEB-DL DD5 1 H264 ESub

Madame 2017 720p WEB-DL DD5 1 H264 ESub Torrent
Size: 1.4 GB
Language: English
Uploader: Creampie

Download Madame 2017 720p WEB-DL DD5 1 H264 ESub Torrent torrent video for PC, tablet, MAC, IPhone or Android device.
Madame 2017 720p WEB-DL DD5 1 H264 ESub Torrent For Torrent download Link. Scroll down!.


MOVIE TRAILER BELLOW.


******************************Thumbnail:**********************



******************************Screenshots:********************

Screen 1


Screen 2


Screen 3


Screen 4


Screen 5

****************************************************************

General
Complete name : Madame.2017.720p.WEB-DL.DD5.1.H264.ESub.mp4
Format : MPEG-4
Format profile : Base Media
Codec ID : isom (isom/iso2/avc1/mp41)
File size : 1.33 GiB
Duration : 1 h 31 min
Overall bit rate : 2 094 kb/s
Writing application : Lavf57.56.101

Video
ID : 1
Format : AVC
Format/Info : Advanced Video Codec
Format profile : [email protected]
Format settings : CABAC / 4 Ref Frames
Format settings, CABAC : Yes
Format settings, RefFrames : 4 frames
Codec ID : avc1
Codec ID/Info : Advanced Video Coding
Duration : 1 h 31 min
Bit rate : 2 000 kb/s
Width : 1 280 pixels
Height : 536 pixels
Display aspect ratio : 2.40:1
Frame rate mode : Constant
Frame rate : 24.000 FPS
Color space : YUV
Chroma subsampling : 4:2:0
Bit depth : 8 bits
Scan type : Progressive
Bits/(Pixel*Frame) : 0.121
Stream size : 1.25 GiB (94%)
Language : English

Audio
ID : 2
Format : AC-3
Format/Info : Audio Coding 3
Codec ID : ac-3
Duration : 1 h 31 min
Bit rate mode : Constant
Bit rate : 128 kb/s
Channel(s) : 2 channels
Channel positions : Front: L R
Sampling rate : 48.0 kHz
Frame rate : 31.250 FPS (1536 SPF)
Bit depth : 16 bits
Compression mode : Lossy
Stream size : 83.5 MiB (6%)
Language : English
Service kind : Complete Main
Default : Yes
Alternate group : 1

Madame 2017 720p WEB-DL DD5 1 H264 ESub Torrent




Hey Friend! Like us!