Marvels Inhumans S01E05 (1080p AMZN WEBRip 1080p x265 HEVC 10bit AAC 5 1 D0ct0rLew) [UTR]

Marvels Inhumans S01E05 (1080p AMZN WEBRip 1080p x265 HEVC 10bit AAC 5 1 D0ct0rLew) [UTR] Torrent
Size: 1.4 GB
Language: English
Uploader: D0ct0rLew

Download Marvels Inhumans S01E05 (1080p AMZN WEBRip 1080p x265 HEVC 10bit AAC 5 1 D0ct0rLew) [UTR] Torrent torrent video for PC, tablet, MAC, IPhone or Android device.
Marvels Inhumans S01E05 (1080p AMZN WEBRip 1080p x265 HEVC 10bit AAC 5 1 D0ct0rLew) [UTR] Torrent For Torrent download Link. Scroll down!.


MOVIE TRAILER BELLOW.







Media Information


Code:

General
Unique ID : 206549799879509293557103842932123084023 (0x9B640B61B2DDC77EAEBCE3FD3055A4F7)
Complete name : Marvels Inhumans S01E05 Something Inhuman This Way Comes 1080p AMZN WEBRip 1080p 10bit AAC 5.1 x265.HEVC D0ct0rLew[UTR].mkv
Format : Matroska
Format version : Version 4 / Version 2
File size : 1.38 GiB
Duration : 43 min 1 s
Overall bit rate : 4 576 kb/s
Encoded date : UTC 2017-10-22 00:58:49
Writing application : mkvmerge v15.0.0 ('Duel with the Devil') 64-bit
Writing library : libebml v1.3.5 + libmatroska v1.4.5

Video
ID : 3
Format : HEVC
Format/Info : High Efficiency Video Coding
Format profile : Main
[email protected]@Main
Codec ID : V_MPEGH/ISO/HEVC
Duration : 43 min 1 s
Bit rate : 4 190 kb/s
Width : 1 920 pixels
Height : 1 080 pixels
Display aspect ratio : 16:9
Frame rate mode : Constant
Frame rate : 23.976 (24000/1001) FPS
Color space : YUV
Chroma subsampling : 4:2:0
Bit depth : 10 bits
Bits/(Pixel*Frame) : 0.084
Stream size : 1.26 GiB (92%)
Writing library : x265 2.5+25-4b95f82c9fb1:[Windows][MSVC 1911][64 bit] 10bit
Encoding settings : cpuid=1050111 / frame-threads=3 / numa-pools=8 / wpp / no-pmode / no-pme / no-psnr / no-ssim / log-level=2 / input-csp=1 / input-res=1920x1080 / interlace=0 / total-frames=61893 / level-idc=0 / high-tier=1 / uhd-bd=0 / ref=4 / no-allow-non-conformance / no-repeat-headers / annexb / no-aud / no-hrd / info / hash=0 / no-temporal-layers / open-gop / min-keyint=23 / keyint=250 / bframes=8 / b-adapt=2 / b-pyramid / bframe-bias=0 / rc-lookahead=90 / lookahead-slices=4 / scenecut=40 / no-intra-refresh / ctu=64 / min-cu-size=8 / rect / no-amp / max-tu-size=32 / tu-inter-depth=1 / tu-intra-depth=1 / limit-tu=0 / rdoq-level=2 / dynamic-rd=0.00 / no-ssim-rd / signhide / no-tskip / nr-intra=0 / nr-inter=0 / no-constrained-intra / no-strong-intra-smoothing / max-merge=3 / limit-refs=3 / limit-modes / me=3 / subme=3 / merange=57 / temporal-mvp / weightp / no-weightb / no-analyze-src-pics / deblock=0:0 / no-sao / no-sao-non-deblock / rd=4 / no-early-skip / rskip / no-fast-intra / no-tskip-fast / no-cu-lossless / no-b-intra / no-splitrd-skip / rdpenalty=0 / psy-rd=1.40 / psy-rdoq=1.00 / no-rd-refine / analysis-reuse-mode=0 / no-lossless / cbqpoffs=3 / crqpoffs=3 / rc=crf / crf=22.5 / qcomp=0.60 / qpstep=4 / stats-write=0 / stats-read=0 / ipratio=1.40 / pbratio=1.30 / aq-mode=3 / aq-strength=1.30 / cutree / zone-count=0 / no-strict-cbr / qg-size=32 / no-rc-grain / qpmax=69 / qpmin=0 / no-const-vbv / sar=0 / overscan=0 / videoformat=5 / range=0 / colorprim=2 / transfer=2 / colormatrix=2 / chromaloc=0 / display-window=0 / max-cll=0,0 / min-luma=0 / max-luma=1023 / log2-max-poc-lsb=8 / vui-timing-info / vui-hrd-info / slices=1 / opt-qp-pps / opt-ref-list-length-pps / no-multi-pass-opt-rps / scenecut-bias=0.05 / no-opt-cu-delta-qp / no-aq-motion / no-hdr / no-hdr-opt / no-dhdr10-opt / analysis-reuse-level=5 / scale-factor=0 / refine-intra=0 / refine-inter=0 / refine-mv=0 / no-limit-sao / ctu-info=0
Default : Yes
Forced : No

Audio
ID : 2
Format : AAC
Format/Info : Advanced Audio Codec
Format profile : LC
Codec ID : A_AAC
Duration : 43 min 1 s
Bit rate : 384 kb/s
Channel(s) : 6 channels
Channel positions : Front: L C R, Side: L R, LFE
Sampling rate : 48.0 kHz
Frame rate : 46.875 FPS (1024 SPF)
Compression mode : Lossy
Delay relative to video : 9 ms
Stream size : 118 MiB (8%)
Default : Yes
Forced : No

Text
ID : 1
Format : UTF-8
Codec ID : S_TEXT/UTF8
Codec ID/Info : UTF-8 Plain Text
Duration : 42 min 50 s
Bit rate : 63 b/s
Count of elements : 826
Stream size : 20.0 KiB (0%)
Default : Yes
Forced : No


UniTeam Branding and Imagery©
No part of this release may be reproduced, distributed, de-tagged or dumped in any form or by any means, without prior consents and permissions of the UniTeam Representative. For distribution requestings, message the uploader or any other UniTeam Representative. Once and only once the permission has been granted, the individual(s) may publish to the desired location without any alterations whatsoever, retaining complete filenames, UTR tags, logos, imagery and all credits due.


Marvels Inhumans S01E05 (1080p AMZN WEBRip 1080p x265 HEVC 10bit AAC 5 1 D0ct0rLew) [UTR] Torrent




Hey Friend! Like us!