Munich 2005 1080p BRRip x264 AAC 5 1 - Hon3y

Munich 2005 1080p BRRip x264 AAC 5 1 - Hon3y Torrent
Size: 3.2 GB
Language: English
Uploader: Hon3yHD

Download Munich 2005 1080p BRRip x264 AAC 5 1 - Hon3y Torrent torrent video for PC, tablet, MAC, IPhone or Android device.
Munich 2005 1080p BRRip x264 AAC 5 1 - Hon3y Torrent For Torrent download Link. Scroll down!.


MOVIE TRAILER BELLOW.




Munich 2005 1080p BRRip x264 AAC 5.1 - Hon3y

Source: Amiable
Format : Matroska
Format version : Version 4 / Version 2
File size : 3.23 GiB
Duration : 2 h 43 min
Overall bit rate : 2 822 kb/s
Movie name : Munich 2005 - Hon3y


Video
ID : 1
Format : AVC
Format/Info : Advanced Video Codec
Format profile :
[email protected]
Format settings, CABAC : Yes
Format settings, RefFrames : 5 frames
Codec ID : V_MPEG4/ISO/AVC
Duration : 2 h 43 min
Bit rate : 2 500 kb/s
Width : 1 920 pixels
Height : 816 pixels
Display aspect ratio : 2.35:1
Frame rate mode : Constant
Frame rate : 23.976 (24000/1001) FPS


Audio
ID : 2
Format : AAC
Format/Info : Advanced Audio Codec
Format profile : LC
Codec ID : A_AAC
Duration : 2 h 43 min
Bit rate : 320 kb/s
Channel(s) : 6 channels
Channel positions : Front: L C R, Side: L R, LFE
Sampling rate : 48.0 kHz
Frame rate : 46.875 FPS (1024 SPF)
Compression mode : Lossy
Delay relative to video : -21 ms
Stream size : 375 MiB (11%)
Title : Surround
Language : English
Default : Yes
Forced : No

Text #1
ID : 3
Format : UTF-8
Codec ID : S_TEXT/UTF8
Codec ID/Info : UTF-8 Plain Text
Duration : 2 h 34 min
Bit rate : 52 b/s
Count of elements : 1720
Stream size : 59.5 KiB (0%)
Title : SDH
Language : English
Default : No
Forced : No

Text #2
ID : 4
Format : UTF-8
Codec ID : S_TEXT/UTF8
Codec ID/Info : UTF-8 Plain Text
Duration : 2 h 34 min
Bit rate : 50 b/s
Count of elements : 1619
Stream size : 57.2 KiB (0%)
Language : English
Default : No
Forced : No

Menu
00:00:00.000 : en:00:00:00.000
00:09:27.484 : en:00:09:27.484
00:22:58.085 : en:00:22:58.085
00:33:29.841 : en:00:33:29.841
00:41:27.485 : en:00:41:27.485
00:47:25.676 : en:00:47:25.676
00:58:30.382 : en:00:58:30.382
01:07:28.336 : en:01:07:28.336
01:16:26.207 : en:01:16:26.207
01:25:08.186 : en:01:25:08.186
01:34:04.138 : en:01:34:04.138
01:44:59.502 : en:01:44:59.502
01:54:21.897 : en:01:54:21.897
01:59:06.056 : en:01:59:06.056
02:06:47.934 : en:02:06:47.934
02:12:18.681 : en:02:12:18.681
02:19:40.622 : en:02:19:40.622
02:27:38.516 : en:02:27:38.516
02:32:27.138 : en:02:32:27.138
02:36:27.336 : en:02:36:27.336

http://www.imdb.com/title/tt0408306/

Munich 2005 1080p BRRip x264 AAC 5 1 - Hon3y Torrent




Hey Friend! Like us!