Murder On The Orient Express (2017) 1080p BDRiP Dual Audio (6CH) Hindi-Eng AC3 x265 ~ MrRajput

Murder On The Orient Express (2017) 1080p BDRiP Dual Audio (6CH) Hindi-Eng AC3 x265 ~ MrRajput Torrent
Size: 2.0 GB
Language: English
Uploader: MrRajput

Download Murder On The Orient Express (2017) 1080p BDRiP Dual Audio (6CH) Hindi-Eng AC3 x265 ~ MrRajput Torrent torrent video for PC, tablet, MAC, IPhone or Android device.
Murder On The Orient Express (2017) 1080p BDRiP Dual Audio (6CH) Hindi-Eng AC3 x265 ~ MrRajput Torrent For Torrent download Link. Scroll down!.


MOVIE TRAILER BELLOW.


Code:



Murder On The Orient Express (2017) 1080p BDRiP Dual Audio (6CH) Hindi-Eng AC3 x265 ~ MrRajput





::: Org Untouched Dolby Digital 5.1 448 kbps :::

::: 23.976 fps Own DvD :::



General
Unique ID : 228296115165893167086412107099371522022 (0xABC03B8117600FACBCFB23DE8E6CC7E6)
Complete name : Murder On The Orient Express (2017) 1080p BDRiP Dual Audio (6CH) Hindi-Eng AC3 x265 ~ MrRajput.mkv
Format : Matroska
Format version : Version 4 / Version 2
File size : 1.99 GiB
Duration : 1 h 53 min
Overall bit rate : 2 499 kb/s
Movie name : Murder On The Orient Express (2017) 1080p BDRiP Dual Audio (6CH) Hindi-Eng AC3 x265 ~ MrRajput
Encoded date : UTC 2018-02-14 05:17:26
Writing application : mkvmerge v8.6.1 ('Flying') 32bit
Writing library : libebml v1.3.3 + libmatroska v1.4.4

Video
ID : 1
Format : HEVC
Format/Info : High Efficiency Video Coding
Format profile :
[email protected]@Main
Codec ID : V_MPEGH/ISO/HEVC
Duration : 1 h 53 min
Bit rate : 1 788 kb/s
Width : 1 920 pixels
Height : 800 pixels
Display aspect ratio : 2.40:1
Frame rate mode : Constant
Frame rate : 23.976 (24000/1001) FPS
Color space : YUV
Chroma subsampling : 4:2:0
Bit depth : 8 bits
Bits/(Pixel*Frame) : 0.049
Stream size : 1.42 GiB (72%)
Title : Murder On The Orient Express (2017) 1080p BDRiP Dual Audio (6CH) Hindi-Eng AC3 x265 ~ MrRajput
Language : English
Default : Yes
Forced : No

Audio #1
ID : 2
Format : AC-3
Format/Info : Audio Coding 3
Codec ID : A_AC3
Duration : 1 h 53 min
Bit rate mode : Constant
Bit rate : 448 kb/s
Channel(s) : 6 channels
Channel positions : Front: L C R, Side: L R, LFE
Sampling rate : 48.0 kHz
Frame rate : 31.250 FPS (1536 SPF)
Bit depth : 16 bits
Compression mode : Lossy
Stream size : 365 MiB (18%)
Title : AC3, Hindi, 5.1Channels, 448kbps, 48kHz ~ MrRajput
Language : Hindi
Service kind : Complete Main
Default : No
Forced : No

Audio #2
ID : 3
Format : AAC
Format/Info : Advanced Audio Codec
Format profile : HE-AAC / LC
Format settings : Explicit
Codec ID : A_AAC-2
Duration : 1 h 53 min
Bit rate : 243 kb/s
Channel(s) : 6 channels
Channel positions : Front: L C R, Side: L R, LFE
Sampling rate : 48.0 kHz / 24.0 kHz
Frame rate : 23.438 FPS (1024 SPF)
Compression mode : Lossy
Delay relative to video : 31 ms
Stream size : 198 MiB (10%)
Title : AAC, English, 5.1Channels, 243kbps, 48kHz ~ MrRajput
Language : English
Default : Yes
Forced : No

Text #1
ID : 4
Format : PGS
Muxing mode : zlib
Codec ID : S_HDMV/PGS
Codec ID/Info : Picture based subtitle format used on BDs/HD-DVDs
Duration : 1 h 52 min
Bit rate : 11.4 kb/s
Count of elements : 3155
Stream size : 9.19 MiB (0%)
Title : HDMV_PGS, Hindi, 4619 ~ MrRajput
Default : No
Forced : No

Text #2
ID : 5
Format : PGS
Muxing mode : zlib
Codec ID : HDMV_PGS
Codec ID/Info : Picture based subtitle format used on DVDs
Duration : 1 h 45 min
Bit rate : 7 645 b/s
Count of elements : 1978
Stream size : 5.79 MiB (0%)
Title : HDMV_PGS, English, 4619 ~ MrRajput
Language : English
Default : Yes
Forced : No

Menu
00:00:00.000 : en:00:00:00.000
00:03:06.144 : en:00:03:06.144
00:06:42.193 : en:00:06:42.193
00:11:44.746 : en:00:11:44.746
00:18:26.188 : en:00:18:26.188
00:24:53.659 : en:00:24:53.659
00:33:14.159 : en:00:33:14.159
00:37:47.515 : en:00:37:47.515
00:43:16.511 : en:00:43:16.511
00:46:24.865 : en:00:46:24.865
00:51:23.580 : en:00:51:23.580
00:55:52.015 : en:00:55:52.015
01:00:03.183 : en:01:00:03.183
01:05:39.227 : en:01:05:39.227
01:10:40.153 : en:01:10:40.153
01:14:17.578 : en:01:14:17.578
01:18:05.055 : en:01:18:05.055
01:21:12.284 : en:01:21:12.284
01:24:39.366 : en:01:24:39.366
01:28:37.854 : en:01:28:37.854
01:32:28.376 : en:01:32:28.376
01:37:04.652 : en:01:37:04.652
01:40:30.024 : en:01:40:30.024
01:46:49.903 : en:01:46:49.903








Thanks To SAM, OZIMAN AND ALL ADMINS,MOD

:::DON'T FORGET TO SAY THANKS:::

:::SEED FROM HIGH SPEED SEEDBOX:::

Tagline:- Everyone is a Suspect.


Murder On The Orient Express (2017) 1080p BDRiP Dual Audio (6CH) Hindi-Eng AC3 x265 ~ MrRajput Torrent




Hey Friend! Like us!