NASCAR 2018 MECS Food City 500 Bristol HDTV x264 720

NASCAR 2018 MECS Food City 500 Bristol HDTV x264 720 Torrent
Size: 6.5 GB
Language: English
Uploader: HackRF

Download NASCAR 2018 MECS Food City 500 Bristol HDTV x264 720 Torrent torrent video for PC, tablet, MAC, IPhone or Android device.
NASCAR 2018 MECS Food City 500 Bristol HDTV x264 720 Torrent For Torrent download Link. Scroll down!.


MOVIE TRAILER BELLOW.


Nascar 2018 Monster Energy Series


Bristol Motor Speedway
Food City 500
Sunday, Apr 15
1:00 PM





General

General
Complete name : NASCAR 2018 MECS Food City 500 Bristol HDTV x264 720.mkv
Format : Matroska
Format version : Version 4 / Version 2
File size : 6.49 GiB
Duration : 3 h 33 min
Overall bit rate : 4 357 kb/s
Encoded date : UTC 2018-04-16 21:25:04
Writing application : mkvmerge v15.0.0 ('Duel with the Devil') 64-bit
Writing library : libebml v1.3.5 + libmatroska v1.4.5

Video
ID : 1
Format : AVC
Format/Info : Advanced Video Codec
Format profile :
[email protected]
Format settings, CABAC : Yes
Format settings, RefFrames : 5 frames
Codec ID : V_MPEG4/ISO/AVC
Duration : 3 h 33 min
Bit rate : 3 969 kb/s
Width : 1 280 pixels
Height : 720 pixels
Display aspect ratio : 16:9
Frame rate mode : Constant
Frame rate : 59.940 (60000/1001) FPS
Color space : YUV
Chroma subsampling : 4:2:0
Bit depth : 8 bits
Scan type : Progressive
Bits/(Pixel*Frame) : 0.072
Stream size : 5.92 GiB (91%)
Writing library : x264 core 148 r2744 b97ae06
Default : Yes
Forced : No

Audio
ID : 2
Format : AC-3
Format/Info : Audio Coding 3
Format settings, Endianness : Big
Codec ID : A_AC3
Duration : 3 h 33 min
Bit rate mode : Constant
Bit rate : 384 kb/s
Channel(s) : 6 channels
Channel positions : Front: L C R, Side: L R, LFE
Sampling rate : 48.0 kHz
Frame rate : 31.250 FPS (1536 SPF)
Bit depth : 16 bits
Compression mode : Lossy
Stream size : 586 MiB (9%)
Language : new
Service kind : Complete Main
Default : Yes
Forced : No

NASCAR 2018 MECS Food City 500 Bristol HDTV x264 720 Torrent




Hey Friend! Like us!