Professor Marston and the Wonder Women 2017 1080p BluRay AC3 5 1 x264 ESub [Moviezworldz]

Professor Marston and the Wonder Women 2017 1080p BluRay AC3 5 1 x264 ESub [Moviezworldz] Torrent
Size: 1.7 GB
Language: English
Uploader: moviezworldz

Download Professor Marston and the Wonder Women 2017 1080p BluRay AC3 5 1 x264 ESub [Moviezworldz] Torrent torrent video for PC, tablet, MAC, IPhone or Android device.
Professor Marston and the Wonder Women 2017 1080p BluRay AC3 5 1 x264 ESub [Moviezworldz] Torrent For Torrent download Link. Scroll down!.


MOVIE TRAILER BELLOW.





General
Format : Matroska
Format version : Version 4 / Version 2
File size : 1.71 GiB
Duration : 1 h 48 min
Overall bit rate : 2 256 kb/s

Video
ID : 1
Format : AVC
Format/Info : Advanced Video Codec
Format profile : [email protected]
Format settings : CABAC / 4 Ref Frames
Format settings, CABAC : Yes
Format settings, ReFrames : 4 frames
Codec ID : V_MPEG4/ISO/AVC
Duration : 1 h 48 min
Bit rate : 2 000 kb/s
Width : 1 920 pixels
Height : 802 pixels
Display aspect ratio : 2.40:1
Frame rate mode : Constant
Frame rate : 23.976 (24000/1001) FPS
Color space : YUV
Chroma subsampling : 4:2:0
Bit depth : 8 bits
Scan type : Progressive
Bits/(Pixel*Frame) : 0.054
Stream size : 1.51 GiB (88%)
Writing library : x264 core 148 r2708 86b7198
Default : Yes
Forced : No

Audio
ID : 2
Format : AC-3
Format/Info : Audio Coding 3
Codec ID : A_AC3
Duration : 1 h 48 min
Bit rate mode : Constant
Bit rate : 256 kb/s
Channel(s) : 6 channels
Channel positions : Front: L C R, Side: L R, LFE
Sampling rate : 48.0 kHz
Frame rate : 31.250 FPS (1536 SPF)
Bit depth : 16 bits
Compression mode : Lossy
Stream size : 199 MiB (11%)
Language : English
Service kind : Complete Main
Default : Yes
Forced : No

Text #1
ID : 3
Format : VobSub
Muxing mode : zlib
Duration : 1 h 41 min
Bit rate : 5 249 b/s
Count of elements : 1090
Stream size : 3.79 MiB (0%)
Language : English
Default : Yes
Forced : No

Text #2
ID : 4
Format : VobSub
Muxing mode : zlib
Duration : 1 h 45 min
Bit rate : 5 785 b/s
Count of elements : 1310
Stream size : 4.36 MiB (0%)
Language : English
Default : No
Forced : No












Professor Marston and the Wonder Women 2017 1080p BluRay AC3 5 1 x264 ESub [Moviezworldz] Torrent




Hey Friend! Like us!