QI_XL_O_S15E10 Objects and Ornaments revittony

QI_XL_O_S15E10 Objects and Ornaments  revittony Torrent
Size: 748.5 MB
Language: English
Uploader: revittony

Download QI_XL_O_S15E10 Objects and Ornaments revittony Torrent torrent video for PC, tablet, MAC, IPhone or Android device.
QI_XL_O_S15E10 Objects and Ornaments revittony Torrent For Torrent download Link. Scroll down!.


MOVIE TRAILER BELLOW.



Format : MPEG-4
Format profile : Base Media
Codec ID : isom (isom/iso2/avc1/mp41)
Overall bit rate mode : Variable
Overall bit rate : 2 390 kb/s

Video
ID : 1
Format : AVC
Format/Info : Advanced Video Codec
Format profile :
[email protected]
Format settings : CABAC / 2 Ref Frames
Format settings, CABAC : Yes
Format settings, RefFrames : 2 frames
Codec ID : avc1
Codec ID/Info : Advanced Video Coding
Duration : 44 min 24 s
Bit rate mode : Variable
Bit rate : 2 291 kb/s
Maximum bit rate : 3 500 kb/s
Width : 1 280 pixels
Height : 720 pixels
Display aspect ratio : 16:9
Frame rate mode : Constant
Frame rate : 25.000 FPS
Color space : YUV
Chroma subsampling : 4:2:0
Bit depth : 8 bits
Scan type : Progressive
Bits/(Pixel*Frame) : 0.099
Stream size : 728 MiB (96%)

Audio
ID : 2
Format : AAC
Format/Info : Advanced Audio Codec
Format profile : LC
Codec ID : mp4a-40-2
Duration : 44 min 24 s
Bit rate mode : Constant
Bit rate : 93.4 kb/s
Channel(s) : 2 channels
Channel positions : Front: L R
Sampling rate : 48.0 kHz
Frame rate : 46.875 FPS (1024 SPF)
Compression mode : Lossy
Stream size : 29.7 MiB (4%)
Default : Yes
Alternate group : 1

QI_XL_O_S15E10 Objects and Ornaments  revittony Torrent




Hey Friend! Like us!