Shawn White's Gold Metal Run at Pyeongchang 2018 mkv

Shawn White's Gold Metal Run at Pyeongchang 2018 mkv Torrent
Size: 46.2 MB
Language: English
Uploader: HackRF

Download Shawn White's Gold Metal Run at Pyeongchang 2018 mkv Torrent torrent video for PC, tablet, MAC, IPhone or Android device.
Shawn White's Gold Metal Run at Pyeongchang 2018 mkv Torrent For Torrent download Link. Scroll down!.


MOVIE TRAILER BELLOW.


Shawn White's Gold Metal Run at Pyeongchang 2018
Lays down a 97.75 to take #1 in the men's halfpipe.

https://s20.postimg.org/8kyyzdk65/Hack_RF-00076.png

General
Complete name : Shawn White's Gold Metal Run at Pyeongchang 2018.mkv
Format : Matroska
Format version : Version 2
File size : 46.2 MiB
Duration : 1 min 42 s
Overall bit rate : 3 777 kb/s
Encoded date : UTC 2018-02-14 03:26:44
Writing application : mkvmerge v15.0.0 ('Duel with the Devil') 64-bit
Writing library : libebml v1.3.5 + libmatroska v1.4.5

Video
ID : 1
Format : AVC
Format/Info : Advanced Video Codec
Format profile :
[email protected]
Format settings, CABAC : Yes
Format settings, RefFrames : 5 frames
Codec ID : V_MPEG4/ISO/AVC
Duration : 1 min 42 s
Bit rate : 3 390 kb/s
Width : 1 280 pixels
Height : 720 pixels
Display aspect ratio : 16:9
Frame rate mode : Constant
Frame rate : 59.940 (60000/1001) FPS
Color space : YUV
Chroma subsampling : 4:2:0
Bit depth : 8 bits
Scan type : Progressive
Bits/(Pixel*Frame) : 0.061
Stream size : 41.4 MiB (90%)
Default : Yes
Forced : No

Audio
ID : 2
Format : AC-3
Format/Info : Audio Coding 3
Format settings, Endianness : Big
Codec ID : A_AC3
Duration : 1 min 42 s
Bit rate mode : Constant
Bit rate : 384 kb/s
Channel(s) : 6 channels
Channel positions : Front: L C R, Side: L R, LFE
Sampling rate : 48.0 kHz
Frame rate : 31.250 FPS (1536 SPF)
Bit depth : 16 bits
Compression mode : Lossy
Stream size : 4.69 MiB (10%)
Language : new
Service kind : Complete Main
Default : Yes
Forced : No

Shawn White's Gold Metal Run at Pyeongchang 2018 mkv Torrent




Hey Friend! Like us!