Shooter 2007 1080p Bluray Dual Audio Hindi+English 5 1 Esub Skyler

Shooter 2007 1080p Bluray Dual Audio Hindi+English 5 1 Esub Skyler Torrent
Size: 4.7 GB
Language: Hindi
Uploader: rinku4445

Download Shooter 2007 1080p Bluray Dual Audio Hindi+English 5 1 Esub Skyler Torrent torrent video for PC, tablet, MAC, IPhone or Android device.
Shooter 2007 1080p Bluray Dual Audio Hindi+English 5 1 Esub Skyler Torrent For Torrent download Link. Scroll down!.


MOVIE TRAILER BELLOW.






Shooter 2007 1080p Bluray Dual Audio Hindi+English 5.1 Esub Skyler


General

Format : Matroska
Format version : Version 4 / Version 2
File size : 4.61 GiB
Duration : 2 h 5 min
Overall bit rate : 5 247 kb/s
Movie name : Shooter 2007 1080p Bluray Dual Audio Hindi+English 5.1 Esub Skyler
Encoded date : UTC 2018-01-11 14:38:55
Writing application : mkvmerge v19.0.0 ('Brave Captain') 64-bit
Writing library : libebml v1.3.5 + libmatroska v1.4.8

Video

ID : 1
Format : AVC
Format/Info : Advanced Video Codec
Format profile : [email protected]
Format settings : 4 Ref Frames
Format settings, CABAC : No
Format settings, RefFrames : 4 frames
Codec ID : V_MPEG4/ISO/AVC
Duration : 2 h 5 min
Bit rate : 4 350 kb/s
Width : 1 920 pixels
Height : 982 pixels
Display aspect ratio : 1.955
Frame rate mode : Constant
Frame rate : 23.976 (24000/1001) FPS
Color space : YUV
Chroma subsampling : 4:2:0
Bit depth : 8 bits
Scan type : Progressive
Bits/(Pixel*Frame) : 0.096
Stream size : 3.82 GiB (83%)

Audio #1

ID : 2
Format : AC-3
Format/Info : Audio Coding 3
Codec ID : A_AC3
Duration : 2 h 5 min
Bit rate mode : Constant
Bit rate : 448 kb/s
Channel(s) : 6 channels
Channel positions : Front: L C R, Side: L R, LFE
Sampling rate : 48.0 kHz
Frame rate : 31.250 FPS (1536 SPF)
Bit depth : 16 bits
Compression mode : Lossy
Delay relative to video : 1 s 245 ms
Stream size : 403 MiB (9%)
Title : 5.1 Skyler
Language : Hindi
Service kind : Complete Main
Default : No
Forced : No

Audio #2

ID : 3
Format : AC-3
Format/Info : Audio Coding 3
Codec ID : A_AC3
Duration : 2 h 5 min
Bit rate mode : Constant
Bit rate : 448 kb/s
Channel(s) : 6 channels
Channel positions : Front: L C R, Side: L R, LFE
Sampling rate : 48.0 kHz
Frame rate : 31.250 FPS (1536 SPF)
Bit depth : 16 bits
Compression mode : Lossy
Delay relative to video : -5 ms
Stream size : 403 MiB (9%)
Title : 5.1 Bluray Skyler
Language : English
Service kind : Complete Main
Default : Yes
Forced : No

Text

ID : 4
Format : UTF-8
Codec ID : S_TEXT/UTF8
Codec ID/Info : UTF-8 Plain Text
Duration : 1 h 56 min
Bit rate : 58 b/s
Count of elements : 1449
Stream size : 50.1 KiB (0%)
Language : English
Default : No
Forced : No


















Shooter 2007 1080p Bluray Dual Audio Hindi+English 5 1 Esub Skyler Torrent




Hey Friend! Like us!