Silicon Valley (2014) - S05E04 (1080p AMZN WEB-DL x265 HEVC 10bit EAC3 6 0 RZeroX) [QxR]

Silicon Valley (2014) - S05E04 (1080p AMZN WEB-DL x265 HEVC 10bit EAC3 6 0 RZeroX) [QxR] Torrent
Size: 509.0 MB
Language: English
Uploader: QxR

Download Silicon Valley (2014) - S05E04 (1080p AMZN WEB-DL x265 HEVC 10bit EAC3 6 0 RZeroX) [QxR] Torrent torrent video for PC, tablet, MAC, IPhone or Android device.
Silicon Valley (2014) - S05E04 (1080p AMZN WEB-DL x265 HEVC 10bit EAC3 6 0 RZeroX) [QxR] Torrent For Torrent download Link. Scroll down!.


MOVIE TRAILER BELLOW.






Media Information

Code:

General
Format : Matroska
Format version : Version 4 / Version 2
File size : 509 MiB
Duration : 29 min 5 s
Overall bit rate : 2 446 kb/s
Encoded date : UTC 2018-04-16 08:52:39
Writing application : mkvmerge v22.0.0 ('At The End Of The World') 64-bit
Writing library : libebml v1.3.5 + libmatroska v1.4.8

Video
ID : 1
Format : HEVC
Format/Info : High Efficiency Video Coding
Format profile : Main [email protected]@Main
Codec ID : V_MPEGH/ISO/HEVC
Duration : 29 min 5 s
Bit rate : 1 803 kb/s
Width : 1 920 pixels
Height : 1 080 pixels
Display aspect ratio : 16:9
Frame rate mode : Constant
Frame rate : 23.976 (24000/1001) FPS
Color space : YUV
Chroma subsampling : 4:2:0
Bit depth : 10 bits
Bits/(Pixel*Frame) : 0.036
Stream size : 375 MiB (74%)
Writing library : x265 2.7+340-aa9102400f24:[Windows][GCC 8.0.1][64 bit] 10bit
Encoding settings : cpuid=1111039 / frame-threads=3 / numa-pools=12 / wpp / no-pmode / no-pme / no-psnr / no-ssim / log-level=2 / input-csp=1 / input-res=1920x1080 / interlace=0 / total-frames=41857 / level-idc=0 / high-tier=1 / uhd-bd=0 / ref=4 / no-allow-non-conformance / no-repeat-headers / annexb / no-aud / no-hrd / info / hash=0 / no-temporal-layers / open-gop / min-keyint=23 / keyint=250 / gop-lookahead=0 / bframes=8 / b-adapt=2 / b-pyramid / bframe-bias=0 / rc-lookahead=65 / lookahead-slices=4 / scenecut=40 / radl=0 / no-intra-refresh / ctu=64 / min-cu-size=8 / no-rect / no-amp / max-tu-size=32 / tu-inter-depth=1 / tu-intra-depth=1 / limit-tu=0 / rdoq-level=2 / dynamic-rd=0.00 / no-ssim-rd / signhide / no-tskip / nr-intra=0 / nr-inter=0 / no-constrained-intra / strong-intra-smoothing / max-merge=3 / limit-refs=3 / limit-modes / me=3 / subme=5 / merange=57 / temporal-mvp / weightp / weightb / no-analyze-src-pics / deblock=-1:-1 / sao / no-sao-non-deblock / rd=4 / no-early-skip / rskip / no-fast-intra / no-tskip-fast / no-cu-lossless / no-b-intra / no-splitrd-skip / rdpenalty=0 / psy-rd=1.65 / psy-rdoq=1.00 / no-rd-refine / no-lossless / cbqpoffs=0 / crqpoffs=0 / rc=crf / crf=22.0 / qcomp=0.60 / qpstep=4 / stats-write=0 / stats-read=0 / ipratio=1.40 / pbratio=1.30 / aq-mode=3 / aq-strength=1.00 / cutree / zone-count=0 / no-strict-cbr / qg-size=32 / no-rc-grain / qpmax=69 / qpmin=0 / no-const-vbv / sar=0 / overscan=0 / videoformat=5 / range=0 / colorprim=2 / transfer=2 / colormatrix=2 / chromaloc=0 / display-window=0 / max-cll=0,0 / min-luma=0 / max-luma=1023 / log2-max-poc-lsb=8 / vui-timing-info / vui-hrd-info / slices=1 / no-opt-qp-pps / no-opt-ref-list-length-pps / no-multi-pass-opt-rps / scenecut-bias=0.00 / no-opt-cu-delta-qp / aq-motion / no-hdr / no-hdr-opt / no-dhdr10-opt / no-idr-recovery-sei / analysis-reuse-level=5 / scale-factor=0 / refine-intra=0 / refine-inter=0 / refine-mv=0 / no-limit-sao / ctu-info=0 / no-lowpass-dct / refine-mv-type=0 / copy-pic=1 / max-ausize-factor=1.0 / no-dynamic-refine / no-single-sei
Default : Yes
Forced : No

Audio
ID : 2
Format : E-AC-3
Format/Info : Enhanced Audio Coding 3
Format settings, Endianness : Big
Codec ID : A_EAC3
Duration : 29 min 5 s
Bit rate mode : Constant
Bit rate : 640 kb/s
Channel(s) : 6 channels
Channel positions : Front: L C R, Side: L R, LFE
Sampling rate : 48.0 kHz
Frame rate : 187.500 FPS (256 spf)
Compression mode : Lossy
Delay relative to video : 11 ms
Stream size : 133 MiB (26%)
Language : English
Default : No
Forced : No

Subtitle #1
ID : 3
Format : UTF-8
Codec ID : S_TEXT/UTF8
Codec ID/Info : UTF-8 Plain Text
Duration : 29 min 0 s
Bit rate : 106 b/s
Count of elements : 718
Stream size : 22.6 KiB (0%)
Language : English
Default : No
Forced : No

Subtitle #2
ID : 4
Format : UTF-8
Codec ID : S_TEXT/UTF8
Codec ID/Info : UTF-8 Plain Text
Duration : 29 min 0 s
Bit rate : 111 b/s
Count of elements : 736
Stream size : 23.7 KiB (0%)
Title : SDH
Language : English
Default : No
Forced : No

Menu
00:00:00.000 : en:TV Rating
00:00:02.003 : en:Previously On
00:00:43.003 : en:HBO
00:00:49.003 : en:Richard assembles the Octo-Pipers
00:05:19.003 : en:Title Sequence
00:05:29.003 : en:Confronting the mole
00:06:35.003 : en:The bear is sticky with honey
00:08:15.003 : en:The team scores a deal with a major partner
00:12:44.003 : en:Bringing in a new partner
00:16:49.003 : en:Deciphering the bear riddle
00:17:27.003 : en:Richard makes an apology
00:19:59.003 : en:Jared looks into Big Head's partnership
00:21:21.003 : en:The bear is still sticky
00:22:17.003 : en:The Octo-Pipers reconvene
00:27:10.003 : en:End Credits

Source Information

Code:

Release:
Silicon.Valley.S05E04.Tech.Evangelist.1080p.AMZN.WEB-DL.DDP5.1.H.264-NTb.mkv (795.88 MBs)


Note From QxR:

Quote:

Whilst we are happy for our releases to be re-posted on a platform we aren't on, please do so in an 'as-is' format. We ask that you do not create a new torrent, include all descriptions you see above including the QxR logo, tags, notes and screenshots. If you'd like to become a permanent poster on a website we don't post to, feel free to get in contact with a QxR member.


Silicon Valley (2014) - S05E04 (1080p AMZN WEB-DL x265 HEVC 10bit EAC3 6 0 RZeroX) [QxR] Torrent




Hey Friend! Like us!