Soul Kitchen (2009) - 1080p x264 - GER (ENG SUBS) [BRSHNKV]

Soul Kitchen (2009) - 1080p x264 - GER (ENG SUBS) [BRSHNKV] Torrent
Size: 1.5 GB
Language: German
Uploader: Baryshnikov

Download Soul Kitchen (2009) - 1080p x264 - GER (ENG SUBS) [BRSHNKV] Torrent torrent video for PC, tablet, MAC, IPhone or Android device.
Soul Kitchen (2009) - 1080p x264 - GER (ENG SUBS) [BRSHNKV] Torrent For Torrent download Link. Scroll down!.


MOVIE TRAILER BELLOW.


In Hamburg, German-Greek chef Zinos unknowingly disturbs the peace in his locals-only restaurant by hiring a more talented chef.









Tech:

Format : MPEG-4
Format profile : Base Media / Version 2
Codec ID : mp42
File size : 1.51 GiB
Duration : 1h 39mn
Overall bit rate mode : Variable
Overall bit rate : 2 171 Kbps
Movie name : Soul Kitchen - 1080p x264 [BRSHNKV]
Encoded date : UTC 2017-12-29 15:35:56
Tagged date : UTC 2017-12-29 15:35:56
Writing application : HandBrake 1.0.2 2017012200

Video
ID : 1
Format : AVC
Format/Info : Advanced Video Codec
Format profile :
[email protected]
Format settings, CABAC : Yes
Format settings, ReFrames : 4 frames
Codec ID : avc1
Codec ID/Info : Advanced Video Coding
Duration : 1h 39mn
Bit rate : 2 000 Kbps
Width : 1 920 pixels
Height : 1 038 pixels
Display aspect ratio : 1.85:1
Frame rate mode : Constant
Frame rate : 24.000 fps
Color space : YUV
Chroma subsampling : 4:2:0
Bit depth : 8 bits
Scan type : Progressive
Bits/(Pixel*Frame) : 0.042
Stream size : 1.39 GiB (92%)
Writing library : x264 core 148 r2708 86b7198
Encoded date : UTC 2017-12-29 15:35:56
Tagged date : UTC 2017-12-29 15:35:56
Color range : Limited
Color primaries : BT.709
Transfer characteristics : BT.709
Matrix coefficients : BT.709

Audio
ID : 2
Format : AAC
Format/Info : Advanced Audio Codec
Format profile : LC
Codec ID : 40
Duration : 1h 39mn
Bit rate mode : Variable
Bit rate : 166 Kbps
Channel(s) : 2 channels
Channel positions : Front: L R
Sampling rate : 48.0 KHz
Compression mode : Lossy
Stream size : 118 MiB (8%)
Title : Stereo / Stereo
Language : German
Encoded date : UTC 2017-12-29 15:35:56
Tagged date : UTC 2017-12-29 15:35:56

Soul Kitchen (2009) - 1080p x264 - GER (ENG SUBS) [BRSHNKV] Torrent




Hey Friend! Like us!