Soul Kitchen (2009) - 1080p x265 HEVC - GER (ENG SUBS) [BRSHNKV]

Soul Kitchen (2009) - 1080p x265 HEVC - GER (ENG SUBS) [BRSHNKV] Torrent
Size: 1.1 GB
Language: German
Uploader: Baryshnikov

Download Soul Kitchen (2009) - 1080p x265 HEVC - GER (ENG SUBS) [BRSHNKV] Torrent torrent video for PC, tablet, MAC, IPhone or Android device.
Soul Kitchen (2009) - 1080p x265 HEVC - GER (ENG SUBS) [BRSHNKV] Torrent For Torrent download Link. Scroll down!.


MOVIE TRAILER BELLOW.



In Hamburg, German-Greek chef Zinos unknowingly disturbs the peace in his locals-only restaurant by hiring a more talented chef.









Tech:


Format : MPEG-4
Format profile : Base Media / Version 2
Codec ID : mp42
File size : 1.09 GiB
Duration : 1h 39mn
Overall bit rate mode : Variable
Overall bit rate : 1 572 Kbps
Movie name : Soul Kitchen - 1080p x265 HEVC [BRSHNKV]
Encoded date : UTC 2017-12-28 22:27:57
Tagged date : UTC 2017-12-28 22:27:57
Writing application : HandBrake 20160211184813-ffd8cb1-master 2016021301

Video
ID : 1
Format : HEVC
Format/Info : High Efficiency Video Coding
Format profile : Main
[email protected]@Main
Codec ID : hev1
Codec ID/Info : High Efficiency Video Coding
Duration : 1h 39mn
Bit rate : 1 400 Kbps
Width : 1 920 pixels
Height : 1 038 pixels
Display aspect ratio : 1.85:1
Frame rate mode : Constant
Frame rate : 24.000 fps
Color space : YUV
Chroma subsampling : 4:2:0
Bit depth : 10 bits
Bits/(Pixel*Frame) : 0.029
Stream size : 997 MiB (89%)
Writing library : x265 1.9:[Mac OS X][clang 7.0.2][64 bit] 10bit
Encoded date : UTC 2017-12-28 22:27:57
Tagged date : UTC 2017-12-28 22:27:57
Color range : Limited
Color primaries : BT.709
Transfer characteristics : BT.709
Matrix coefficients : BT.709

Audio
ID : 2
Format : AAC
Format/Info : Advanced Audio Codec
Format profile : LC
Codec ID : 40
Duration : 1h 39mn
Bit rate mode : Variable
Bit rate : 166 Kbps
Channel(s) : 2 channels
Channel positions : Front: L R
Sampling rate : 48.0 KHz
Compression mode : Lossy
Stream size : 118 MiB (11%)
Title : Stereo / Stereo
Language : German
Encoded date : UTC 2017-12-28 22:27:57
Tagged date : UTC 2017-12-28 22:27:57

Soul Kitchen (2009) - 1080p x265 HEVC - GER (ENG SUBS) [BRSHNKV] Torrent




Hey Friend! Like us!