Star Wars The Last Jedi 2017 SUBBED CAM x264-DreamChaser

Star Wars The Last Jedi 2017 SUBBED CAM x264-DreamChaser Torrent
Size: 2.5 GB
Language: English
Uploader: Dingie

Download Star Wars The Last Jedi 2017 SUBBED CAM x264-DreamChaser Torrent torrent video for PC, tablet, MAC, IPhone or Android device.
Star Wars The Last Jedi 2017 SUBBED CAM x264-DreamChaser Torrent For Torrent download Link. Scroll down!.


MOVIE TRAILER BELLOW.




Star.Wars.The.Last.Jedi.2017.SUBBED.CAM.x264-DreamChaser

Source: Zi$t 720p

NOTE: Used the force to blur the site logos, correct contrast, fix color balance, lower gamma slightly then sharpened and resized. http://screenshotcomparison.com/comparison/128842

http://www.imdb.com/title/tt2527336/

Rey develops her newly discovered abilities with the guidance of Luke Skywalker, who is unsettled by the strength of her powers. Meanwhile, the Resistance prepares for battle with the First Order.

General
Complete name : Star.Wars.The.Last.Jedi.2017.SUBBED.CAM.x264-DreamChaser.mp4
Format : MPEG-4
Format profile : Base Media
Codec ID : isom (isom/avc1)
File size : 2.46 GiB
Duration : 2 h 24 min
Overall bit rate mode : Variable
Overall bit rate : 2 442 kb/s
Encoded date : UTC 2018-01-14 07:06:50
Tagged date : UTC 2018-01-14 07:06:50

Video
ID : 1
Format : AVC
Format/Info : Advanced Video Codec
Format profile :
[email protected]
Format settings : CABAC / 3 Ref Frames
Format settings, CABAC : Yes
Format settings, RefFrames : 3 frames
Codec ID : avc1
Codec ID/Info : Advanced Video Coding
Duration : 2 h 24 min
Bit rate mode : Variable
Bit rate : 2 300 kb/s
Maximum bit rate : 40.0 Mb/s
Width : 720 pixels
Height : 304 pixels
Display aspect ratio : 2.35:1
Frame rate mode : Constant
Frame rate : 23.976 (24000/1001) FPS
Color space : YUV
Chroma subsampling : 4:2:0
Bit depth : 8 bits
Scan type : Progressive
Bits/(Pixel*Frame) : 0.438
Stream size : 2.31 GiB (94%)
Writing library : x264 core 152 r2851 ba24899
Encoding settings : cabac=1 / ref=4 / deblock=1:1:1 / analyse=0x3:0x113 / me=umh / subme=9 / psy=1 / psy_rd=1.00:0.15 / mixed_ref=1 / me_range=18 / chroma_me=1 / trellis=2 / 8x8dct=1 / cqm=0 / deadzone=21,11 / fast_pskip=0 / chroma_qp_offset=-3 / threads=3 / lookahead_threads=1 / sliced_threads=0 / slices=4 / nr=0 / decimate=1 / interlaced=0 / bluray_compat=0 / constrained_intra=0 / bframes=3 / b_pyramid=1 / b_adapt=2 / b_bias=0 / direct=1 / weightb=1 / open_gop=0 / weightp=0 / keyint=23 / keyint_min=1 / scenecut=40 / intra_refresh=0 / rc_lookahead=23 / rc=abr / mbtree=1 / bitrate=2300 / ratetol=1.0 / qcomp=0.60 / qpmin=10 / qpmax=51 / qpstep=4 / vbv_maxrate=40000 / vbv_bufsize=30000 / nal_hrd=vbr / filler=0 / ip_ratio=1.40 / aq=1:1.00
Encoded date : UTC 2018-01-14 07:06:50
Tagged date : UTC 2018-01-14 07:11:18
Color range : Full
Color primaries : BT.709
Transfer characteristics : BT.709
Matrix coefficients : BT.709

Audio
ID : 2
Format : AAC
Format/Info : Advanced Audio Codec
Format profile : LC
Codec ID : mp4a-40-2
Duration : 2 h 24 min
Bit rate mode : Variable
Bit rate : 137 kb/s
Maximum bit rate : 155 kb/s
Channel(s) : 2 channels
Channel positions : Front: L R
Sampling rate : 48.0 kHz
Frame rate : 46.875 FPS (1024 SPF)
Compression mode : Lossy
Stream size : 142 MiB (6%)
Language : English
Encoded date : UTC 2018-01-14 06:57:26
Tagged date : UTC 2018-01-14 07:11:18










Star Wars The Last Jedi 2017 SUBBED CAM x264-DreamChaser Torrent




Hey Friend! Like us!