Stranger Things S02 1080p WEB-RIP 1080p x264-TheJohnCena

Stranger Things S02 1080p WEB-RIP 1080p x264-TheJohnCena Torrent
Size: 13.3 GB
Language: English
Uploader: ppb1

Download Stranger Things S02 1080p WEB-RIP 1080p x264-TheJohnCena Torrent torrent video for PC, tablet, MAC, IPhone or Android device.
Stranger Things S02 1080p WEB-RIP 1080p x264-TheJohnCena Torrent For Torrent download Link. Scroll down!.


MOVIE TRAILER BELLOW.




Stranger Things Stagione 2



.: Scheda della serie :.

Anno: 2016
Genere: Thriller, Drama, Science-Fiction

Cast: Millie Bobby Brown, Finn Wolfhard, Caleb McLaughlin ...

.: Trama :.


La scomparsa di un ragazzino in una cittadina porta alla luce un mistero in cui si mescolano esperimenti segreti, spaventose forze soprannaturali e una strana bambina.

When a young boy disappears, his mother, a police chief, and his friends must confront terrifying forces in order to get him back.


.: ScreenShot :.



.: Scheda tecnica :. [spoiler]

Format : Matroska
Format version : Version 4 / Version 2
File size : 1.50 GiB
Duration : 47 min 49 s
Overall bit rate mode : Variable
Overall bit rate : 4 503 kb/s
Movie name : Stranger Things - S02E01 - Capitolo uno Mad Max [Chapter One MADMAX] - WEB-RIP 1080p di TheJohnCena [T7ST]
Encoded date : UTC 2017-10-27 19:56:29
Writing application : mkvmerge v16.0.0 ('Protest') 64-bit
Writing library : libebml v1.3.5 + libmatroska v1.4.8
Cover : Yes
Attachments : Cover Art

Video
ID : 1
Format : AVC
Format/Info : Advanced Video Codec
Format profile : [email protected]
Format settings, CABAC : Yes
Format settings, ReFrames : 3 frames
Codec ID : V_MPEG4/ISO/AVC
Duration : 47 min 49 s
Bit rate mode : Variable
Bit rate : 3 830 kb/s
Maximum bit rate : 5 745 kb/s
Width : 1 920 pixels
Height : 1 080 pixels
Display aspect ratio : 16:9
Frame rate mode : Constant
Frame rate : 23.976 (24000/1001) FPS
Color space : YUV
Chroma subsampling : 4:2:0
Bit depth : 8 bits
Scan type : Progressive
Bits/(Pixel*Frame) : 0.077
Stream size : 1.25 GiB (83%)
Title : Stranger Things - S02E01 - Capitolo uno Mad Max [Chapter One MADMAX] - WEB-RIP 1080p di TheJohnCena [T7ST]
Writing library : x264 core 148
Encoding settings : cabac=1 / ref=3 / deblock=1:0:0 / analyse=0x1:0x111 / me=umh / subme=10 / psy=1 / psy_rd=1.00:0.00 / mixed_ref=1 / me_range=24 / chroma_me=1 / trellis=2 / 8x8dct=0 / cqm=0 / deadzone=21,11 / fast_pskip=1 / chroma_qp_offset=-2 / threads=8 / lookahead_threads=1 / sliced_threads=0 / nr=0 / decimate=1 / interlaced=0 / bluray_compat=0 / stitchable=1 / constrained_intra=0 / bframes=2 / b_pyramid=0 / b_adapt=2 / b_bias=0 / direct=3 / weightb=1 / open_gop=0 / weightp=2 / keyint=48 / keyint_min=25 / scenecut=0 / intra_refresh=0 / rc_lookahead=48 / rc=2pass / mbtree=1 / bitrate=3830 / ratetol=1.0 / qcomp=0.50 / qpmin=6 / qpmax=51 / qpstep=4 / cplxblur=20.0 / qblur=0.5 / vbv_maxrate=5745 / vbv_bufsize=7660 / nal_hrd=vbr / filler=0 / ip_ratio=1.40 / aq=1:1.00
Default : Yes
Forced : No

Audio #1
ID : 2
Format : AC-3
Format/Info : Audio Coding 3
Format settings, Endianness : Big
Codec ID : A_AC3
Duration : 47 min 49 s
Bit rate mode : Constant
Bit rate : 384 kb/s
Channel(s) : 6 channels
Channel positions : Front: L C R, Side: L R, LFE
Sampling rate : 48.0 kHz
Frame rate : 31.250 FPS (1536 spf)
Bit depth : 16 bits
Compression mode : Lossy
Stream size : 131 MiB (9%)
Language : English
Service kind : Complete Main
Default : No
Forced : No

Audio #2
ID : 8
Format : AC-3
Format/Info : Audio Coding 3
Format settings, Endianness : Big
Codec ID : A_AC3
Duration : 47 min 49 s
Bit rate mode : Constant
Bit rate : 384 kb/s
Channel(s) : 6 channels
Channel positions : Front: L C R, Side: L R, LFE
Sampling rate : 48.0 kHz
Frame rate : 31.250 FPS (1536 spf)
Bit depth : 16 bits
Compression mode : Lossy
Stream size : 131 MiB (9%)
Language : Italian
Service kind : Complete Main
Default : Yes
Forced : No

Text #1
ID : 3
Format : UTF-8
Codec ID : S_TEXT/UTF8
Codec ID/Info : UTF-8 Plain Text
Duration : 44 min 39 s
Bit rate : 61 b/s
Count of elements : 579
Stream size : 20.3 KiB (0%)
Title : English
Language : English
Default : No
Forced : No

Text #2
ID : 4
Format : UTF-8
Codec ID : S_TEXT/UTF8
Codec ID/Info : UTF-8 Plain Text
Duration : 46 min 32 s
Bit rate : 48 b/s
Count of elements : 508
Stream size : 16.7 KiB (0%)
Language : German
Default : No
Forced : No

Text #3
ID : 5
Format : UTF-8
Codec ID : S_TEXT/UTF8
Codec ID/Info : UTF-8 Plain Text
Duration : 44 min 52 s
Bit rate : 49 b/s
Count of elements : 510
Stream size : 16.2 KiB (0%)
Language : Spanish
Default : No
Forced : No

Text #4
ID : 6
Format : UTF-8
Codec ID : S_TEXT/UTF8
Codec ID/Info : UTF-8 Plain Text
Duration : 46 min 17 s
Bit rate : 49 b/s
Count of elements : 505
Stream size : 16.8 KiB (0%)
Language : French
Default : No
Forced : No

Text #5
ID : 7
Format : UTF-8
Codec ID : S_TEXT/UTF8
Codec ID/Info : UTF-8 Plain Text
Duration : 46 min 1 s
Bit rate : 42 b/s
Count of elements : 446
Stream size : 14.3 KiB (0%)
Language : Dutch
Default : No
Forced : No

Text #6
ID : 9
Format : UTF-8
Codec ID : S_TEXT/UTF8
Codec ID/Info : UTF-8 Plain Text
Duration : 46 min 33 s
Bit rate : 50 b/s
Count of elements : 500
Stream size : 17.4 KiB (0%)
Language : Italian
Default : No
Forced : No

Text #7
ID : 10
Format : UTF-8
Codec ID : S_TEXT/UTF8
Codec ID/Info : UTF-8 Plain Text
Duration : 46 min 35 s
Bit rate : 1 b/s
Count of elements : 15
Stream size : 385 Bytes (0%)
Title : Forced
Language : Italian
Default : No
Forced : Yes

[/spoiler]

Stranger Things S02 1080p WEB-RIP 1080p x264-TheJohnCena Torrent




Hey Friend! Like us!