Stronger (2017) x 808 (1080p) DD5 1 - 2 0 x264 Phun Psyz

Stronger (2017) x 808 (1080p) DD5 1 - 2 0 x264 Phun Psyz Torrent
Size: 1.9 GB
Language: English
Uploader: PhunPsyz

Download Stronger (2017) x 808 (1080p) DD5 1 - 2 0 x264 Phun Psyz Torrent torrent video for PC, tablet, MAC, IPhone or Android device.
Stronger (2017) x 808 (1080p) DD5 1 - 2 0 x264 Phun Psyz Torrent For Torrent download Link. Scroll down!.


MOVIE TRAILER BELLOW.


www.imdb.com/title/tt3881784/

Stronger is the inspiring real life story of Jeff Bauman, an ordinary man who captured the hearts of his city and the world to become a symbol of hope after surviving the 2013 Boston Marathon bombing.

Source: GECKOS (8.74 GiB)





Format : MPEG-4
Format profile : Base Media / Version 2
Codec ID : mp42 (isom/iso2/avc1/mp41)
File size : 1.93 GiB
Duration : 1 h 58 min
Overall bit rate mode : Variable
Overall bit rate : 2 324 kb/s
Writing application : HandBrake 1.0.7 2017040900

Video
ID : 1
Format : AVC
Format/Info : Advanced Video Codec
Format profile : [email protected]
Format settings : CABAC / 8 Ref Frames
Format settings, CABAC : Yes
Format settings, RefFrames : 8 frames
Codec ID : avc1
Codec ID/Info : Advanced Video Coding
Duration : 1 h 58 min
Bit rate : 1 836 kb/s
Width : 1 920 pixels
Height : 808 pixels
Display aspect ratio : 2.40:1
Frame rate mode : Variable
Frame rate : 23.976 (24000/1001) FPS
Minimum frame rate : 23.974 FPS
Maximum frame rate : 23.981 FPS
Color space : YUV
Chroma subsampling : 4:2:0
Bit depth : 8 bits
Scan type : Progressive
Bits/(Pixel*Frame) : 0.049
Stream size : 1.53 GiB (79%)
Writing library : x264 core 148 r2708 86b7198
Color range : Limited
Color primaries : BT.709
Transfer characteristics : BT.709
Matrix coefficients : BT.709
Menus : 5

Audio #1
ID : 2
Format : AC-3
Format/Info : Audio Coding 3
Format settings, Endianness : Big
Codec ID : ac-3
Duration : 1 h 58 min
Bit rate mode : Constant
Bit rate : 320 kb/s
Channel(s) : 6 channels
Channel positions : Front: L C R, Side: L R, LFE
Sampling rate : 48.0 kHz
Frame rate : 31.250 FPS (1536 SPF)
Bit depth : 16 bits
Compression mode : Lossy
Stream size : 272 MiB (14%)
Title : Surround / Surround
Language : English
Service kind : Complete Main
Default : Yes
Alternate group : 1
Fallback To : 3

Audio #2
ID : 3
Format : AAC
Format/Info : Advanced Audio Codec
Format profile : LC
Codec ID : mp4a-40-2
Duration : 1 h 58 min
Bit rate mode : Variable
Bit rate : 160 kb/s
Channel(s) : 2 channels
Channel positions : Front: L R
Sampling rate : 48.0 kHz
Frame rate : 46.875 FPS (1024 SPF)
Compression mode : Lossy
Stream size : 136 MiB (7%)
Title : Stereo / Stereo
Language : English
Default : Inherited From: 2
Alternate group : 1
Fallback From : 2
Menus : 5

Text
ID : 4
Format : Timed Text
Muxing mode : sbtl
Codec ID : tx3g
Duration : 1 h 51 min
Bit rate mode : Variable
Bit rate : 110 b/s
Stream size : 89.8 KiB (0%)
Language : English
Default : Yes
Forced : No
Alternate group : 3
Menus : 5

Menu
ID : 5
Codec ID : text
Duration : 1 h 58 min
Language : English
Bit rate mode : CBR
Menu For : 1,3,4
00:00:00.000 : 00:00:00.000
00:07:32.827 : 00:07:32.827
00:15:35.977 : 00:15:35.935
00:23:41.587 : 00:23:41.587
00:32:34.578 : 00:32:34.536
00:40:17.415 : 00:40:17.415
00:46:39.088 : 00:46:39.088
00:53:56.650 : 00:53:56.650
01:00:09.731 : 01:00:09.731
01:06:37.994 : 01:06:37.994
01:11:42.924 : 01:11:42.924
01:20:15.978 : 01:20:15.978
01:31:28.608 : 01:31:28.483
01:37:09.449 : 01:37:09.449
01:45:33.744 : 01:45:33.661
01:52:40.629 : 01:52:40.587

Stronger (2017) x 808 (1080p) DD5 1 - 2 0 x264 Phun Psyz Torrent




Hey Friend! Like us!