The Cage Fighter 2018 Movies HDRip x264 5 1 ESubs with Sample ☻rDX☻

The Cage Fighter 2018 Movies HDRip x264 5 1 ESubs with Sample ☻rDX☻ Torrent
Size: 798.8 MB
Language: English
Uploader: nehalpuja

Download The Cage Fighter 2018 Movies HDRip x264 5 1 ESubs with Sample ☻rDX☻ Torrent torrent video for PC, tablet, MAC, IPhone or Android device.
The Cage Fighter 2018 Movies HDRip x264 5 1 ESubs with Sample ☻rDX☻ Torrent For Torrent download Link. Scroll down!.


MOVIE TRAILER BELLOW.


The Cage Fighter 2018 Movies HDRip x264 5.1 ESubs with Sample ☻rDX☻
===============================================================================================

SCREEN SHOTS:



or

http://postimage.co.nr/2018/2/court/1.html

File size : 790 MiB
Duration : 1 h 20 min
Overall bit rate : 1 365 kb/s
Movie name : The Cage Fighter 2018 Movies HDRip x264 5.1 ESubs ☻rDX☻

Video
ID : 2
Format : AVC
Format/Info : Advanced Video Codec
Format profile : [email protected]
Format settings, CABAC : Yes
Format settings, ReFrames : 4 frames
Codec ID : V_MPEG4/ISO/AVC
Duration : 1 h 20 min
Bit rate : 698 kb/s
Width : 720 pixels
Height : 300 pixels
Display aspect ratio : 2.40:1
Original display aspect ratio : 2.40:1
Frame rate mode : Constant
Frame rate : 23.976 (24000/1001) FPS
Color space : YUV
Chroma subsampling : 4:2:0
Bit depth : 8 bits
Scan type : Progressive
Bits/(Pixel*Frame) : 0.135
Stream size : 404 MiB (51%)
Title : ☻rDX☻
Writing library : x264

Audio
ID : 1
Format : E-AC-3
Format/Info : Enhanced Audio Coding 3
Format settings, Endianness : Big
Codec ID : A_EAC3
Duration : 1 h 20 min
Bit rate mode : Constant
Bit rate : 640 kb/s
Channel(s) : 6 channels
Channel positions : Front: L C R, Side: L R, LFE
Sampling rate : 48.0 kHz
Frame rate : 187.500 FPS (256 spf)
Compression mode : Lossy
Delay relative to video : -21 ms
Stream size : 370 MiB (47%)
Title : ☻rDX☻
Language : English
Default : Yes
Forced : No

Text
ID : 3
Format : ASS
Codec ID : S_TEXT/ASS
Codec ID/Info : Advanced Sub Station Alpha
Compression mode : Lossless
Title : ☻rDX☻
Language : English
Default : Yes
Forced : No



IMDB : http://www.imdb.com/title/tt6436888

The Cage Fighter 2018 Movies HDRip x264 5 1 ESubs with Sample ☻rDX☻ Torrent




Hey Friend! Like us!