The Legend Of Tarzan (2016) 720p BluRay x264 [Dual-Audio] [Eng 5 1+Hin 5 1] - Filmiwar

The Legend Of Tarzan (2016) 720p BluRay x264 [Dual-Audio] [Eng 5 1+Hin 5 1] - Filmiwar Torrent
Size: 1.1 GB
Language: English
Uploader: filmiwar

Download The Legend Of Tarzan (2016) 720p BluRay x264 [Dual-Audio] [Eng 5 1+Hin 5 1] - Filmiwar Torrent torrent video for PC, tablet, MAC, IPhone or Android device.
The Legend Of Tarzan (2016) 720p BluRay x264 [Dual-Audio] [Eng 5 1+Hin 5 1] - Filmiwar Torrent For Torrent download Link. Scroll down!.


MOVIE TRAILER BELLOW.





-:@ General @:-

Format : Matroska
Format version : Version 4 / Version 2
File size : 1.07 GiB
Duration : 1h 49mn
Overall bit rate : 1 399 Kbps
Movie name : Visit -:@ Filmiwar.com @:- | The Legend Of Tarzan (2016) 720p BluRay x264 [Dual-Audio] [Eng 5.1+Hin 5.1] - Filmiwar
Encoded date : UTC 2018-02-08 03:58:41
Attachment : Yes

-:@ Video @:-

ID : 1
Format : AVC
Format/Info : Advanced Video Codec
Format profile :
[email protected]
Format settings, CABAC : Yes
Format settings, ReFrames : 3 frames
Codec ID : V_MPEG4/ISO/AVC
Duration : 1h 49mn
Bit rate : 950 Kbps
Width : 1 280 pixels
Height : 536 pixels
Display aspect ratio : 2.40:1
Frame rate mode : Constant
Frame rate : 23.976 fps
Color space : YUV
Chroma subsampling : 4:2:0
Bit depth : 8 bits
Scan type : Progressive
Bits/(Pixel*Frame) : 0.058
Stream size : 726 MiB (66%)
Title : Visit -:@ Filmiwar.com @:-
Language : English
Default : Yes
Forced : No

-:@ Audio #1 @:-

ID : 2
Format : AC-3
Format/Info : Audio Coding 3
Mode extension : CM (complete main)
Format settings, Endianness : Big
Codec ID : A_AC3
Duration : 1h 49mn
Bit rate mode : Constant
Bit rate : 224 Kbps
Channel count : 6 channels
Channel positions : Front: L C R, Side: L R, LFE
Sampling rate : 48.0 KHz
Bit depth : 16 bits
Compression mode : Lossy
Stream size : 176 MiB (16%)
Title : Visit -:@ Filmiwar.com @:-
Language : Hindi
Default : Yes
Forced : No

-:@ Audio #2 @:-

ID : 3
Format : AC-3
Format/Info : Audio Coding 3
Mode extension : CM (complete main)
Format settings, Endianness : Big
Codec ID : A_AC3
Duration : 1h 49mn
Bit rate mode : Constant
Bit rate : 224 Kbps
Channel count : 6 channels
Channel positions : Front: L C R, Side: L R, LFE
Sampling rate : 48.0 KHz
Bit depth : 16 bits
Compression mode : Lossy
Stream size : 176 MiB (16%)
Title : Visit -:@ Filmiwar.com @:-
Language : English
Default : No
Forced : No




-:@ Screen Shots @:-















The Legend Of Tarzan (2016) 720p BluRay x264 [Dual-Audio] [Eng 5 1+Hin 5 1] - Filmiwar Torrent




Hey Friend! Like us!