The Passion Of The Christ 1080p x265 DTS subs_en,_de extras bluegate

The Passion Of The Christ 1080p x265 DTS subs_en,_de extras bluegate Torrent
Size: 11.9 GB
Language: Latin
Uploader: bluegate

Download The Passion Of The Christ 1080p x265 DTS subs_en,_de extras bluegate Torrent torrent video for PC, tablet, MAC, IPhone or Android device.
The Passion Of The Christ 1080p x265 DTS subs_en,_de extras bluegate Torrent For Torrent download Link. Scroll down!.


MOVIE TRAILER BELLOW.


ThePassionOfTheChrist 1080p x265 DTS subs_en,_de extras bluegate

General
Unique ID                : 56907466280936787702276590425219069485 (0x2ACFFAB5D3D20F4B73A7D1400D8CF62D)
Format                   : Matroska
Format version           : Version 4 / Version 2
File size                : 8.60 GiB
Duration                 : 2h 6mn
Overall bit rate         : 9 746 Kbps
Writing application      : Lavf58.2.103
Writing library          : Lavf58.2.103 / Lavf58.2.103
ErrorDetectionType       : Per level 1

Video
ID                       : 1
Format                   : HEVC
Format/Info              : High Efficiency Video Coding
Format profile           :
[email protected]@Main
Codec ID                 : V_MPEGH/ISO/HEVC
Duration                 : 2h 6mn
Width                    : 1 920 pixels
Height                   : 1 080 pixels
Display aspect ratio     : 16:9
Frame rate mode          : Constant
Frame rate               : 24.000 fps
Color space              : YUV
Chroma subsampling       : 4:2:0
Bit depth                : 8 bits
Writing library          : x265 2.6+5-b1dfa312234e:[Windows][GCC 7.2.0][64 bit] 8bit
Default                  : Yes
Forced                   : No
DURATION                 : 02:06:23.375000000

Audio #1
ID                       : 2
Format                   : DTS
Format/Info              : Digital Theater Systems
Codec ID                 : A_DTS
Duration                 : 2h 6mn
Channel(s)               : 6 channels
Sampling rate            : 48.0 KHz
Bit depth                : 24 bits
Compression mode         : Lossy
Default                  : Yes
Forced                   : No
DURATION                 : 02:06:23.403000000

Audio #2
ID                       : 3
Format                   : AC-3
Format/Info              : Audio Coding 3
Mode extension           : CM (complete main)
Format settings, Endiann : Big
Codec ID                 : A_AC3
Duration                 : 2h 6mn
Bit rate mode            : Constant
Bit rate                 : 192 Kbps
Channel(s)               : 2 channels
Channel positions        : Front: L R
Sampling rate            : 48.0 KHz
Frame rate               : 31.250 fps (1536 spf)
Bit depth                : 32 bits
Compression mode         : Lossy
Stream size              : 174 MiB (2%)
Default                  : Yes
Forced                   : No
DURATION                 : 02:06:23.392000000

Audio #3
ID                       : 4
Format                   : AC-3
Format/Info              : Audio Coding 3
Mode extension           : CM (complete main)
Format settings, Endiann : Big
Codec ID                 : A_AC3
Duration                 : 2h 6mn
Bit rate mode            : Constant
Bit rate                 : 192 Kbps
Channel(s)               : 2 channels
Channel positions        : Front: L R
Sampling rate            : 48.0 KHz
Frame rate               : 31.250 fps (1536 spf)
Bit depth                : 32 bits
Compression mode         : Lossy
Stream size              : 174 MiB (2%)
Default                  : Yes
Forced                   : No
DURATION                 : 02:06:23.392000000

Audio #4
ID                       : 5
Format                   : AC-3
Format/Info              : Audio Coding 3
Mode extension           : CM (complete main)
Format settings, Endiann : Big
Codec ID                 : A_AC3
Duration                 : 2h 6mn
Bit rate mode            : Constant
Bit rate                 : 192 Kbps
Channel(s)               : 2 channels
Channel positions        : Front: L R
Sampling rate            : 48.0 KHz
Frame rate               : 31.250 fps (1536 spf)
Bit depth                : 32 bits
Compression mode         : Lossy
Stream size              : 174 MiB (2%)
Default                  : Yes
Forced                   : No
DURATION                 : 02:06:23.392000000

Audio #5
ID                       : 6
Format                   : AC-3
Format/Info              : Audio Coding 3
Codec ID                 : A_AC3
Duration                 : 2h 6mn
Channel(s)               : 2 channels
Sampling rate            : 48.0 KHz
Bit depth                : 32 bits
Compression mode         : Lossy
Default                  : Yes
Forced                   : No
DURATION                 : 02:06:23.392000000

Text #1
ID                       : 7
Format                   : PGS
Codec ID                 : S_HDMV/PGS
Codec ID/Info            : Picture based subtitle format used on BDs/HD-DVDs
Default                  : Yes
Forced                   : No
DURATION                 : 01:54:04.000000000

Text #2
ID                       : 8
Format                   : PGS
Codec ID                 : S_HDMV/PGS
Codec ID/Info            : Picture based subtitle format used on BDs/HD-DVDs
Default                  : Yes
Forced                   : No
DURATION                 : 01:59:41.208000000


The Passion Of The Christ 1080p x265 DTS subs_en,_de extras bluegate Torrent




Hey Friend! Like us!