The Polka King 2017 HDRip XviD AC3 ESub LLG mp4

The Polka King 2017 HDRip XviD AC3 ESub LLG mp4 Torrent
Size: 784.4 MB
Language: English
Uploader: Creampie

Download The Polka King 2017 HDRip XviD AC3 ESub LLG mp4 Torrent torrent video for PC, tablet, MAC, IPhone or Android device.
The Polka King 2017 HDRip XviD AC3 ESub LLG mp4 Torrent For Torrent download Link. Scroll down!.


MOVIE TRAILER BELLOW.


******************************Thumbnail:**********************



******************************Screenshots:********************

Screenshot 1

Screenshot 2

Screenshot 3

Screenshot 4

Screenshot 5

Screenshot 6

Screenshot 7

Screenshot 8

Screenshot 9

Screenshot 0

**************************************************************

Complete name : The.Polka.King.2017.HDRip.XviD.AC3.ESub.LLG.mp4
Format : MPEG-4
Format profile : Base Media
Codec ID : isom (isom/iso2/avc1/mp41)
File size : 778 MiB
Duration : 1 h 34 min
Overall bit rate : 1 156 kb/s
Writing application : Lavf57.56.101

Video
ID : 1
Format : AVC
Format/Info : Advanced Video Codec
Format profile : [email protected]
Format settings : CABAC / 4 Ref Frames
Format settings, CABAC : Yes
Format settings, RefFrames : 4 frames
Codec ID : avc1
Codec ID/Info : Advanced Video Coding
Duration : 1 h 34 min
Bit rate : 900 kb/s
Width : 720 pixels
Height : 304 pixels
Display aspect ratio : 2.35:1
Frame rate mode : Constant
Frame rate : 23.976 (23976/1000) FPS
Color space : YUV
Chroma subsampling : 4:2:0
Bit depth : 8 bits
Scan type : Progressive
Bits/(Pixel*Frame) : 0.171
Stream size : 602 MiB (77%)


Audio
ID : 2
Format : AC-3
Format/Info : Audio Coding 3
Codec ID : ac-3
Duration : 1 h 34 min
Bit rate mode : Constant
Bit rate : 256 kb/s
Channel(s) : 6 channels
Channel positions : Front: L C R, Side: L R, LFE
Sampling rate : 48.0 kHz
Frame rate : 31.250 FPS (1536 SPF)
Bit depth : 16 bits
Compression mode : Lossy
Stream size : 172 MiB (22%)
Service kind : Complete Main
Default : Yes
Alternate group : 1

The Polka King 2017 HDRip XviD AC3 ESub LLG mp4 Torrent




Hey Friend! Like us!