The Tenant (1976) [1080p]

The Tenant (1976) [1080p] Torrent
Size: 4.8 GB
Language: English
Uploader: takearushfan

Download The Tenant (1976) [1080p] Torrent torrent video for PC, tablet, MAC, IPhone or Android device.
The Tenant (1976) [1080p] Torrent For Torrent download Link. Scroll down!.


MOVIE TRAILER BELLOW.


General
Format : MPEG-4
Format profile : Base Media / Version 2
Codec ID : mp42 (mp42/isom)
File size : 4.81 GiB
Duration : 2h 5mn
Overall bit rate mode : Variable
Overall bit rate : 5 482 Kbps
Movie name : The Tenant
Performer : Roman Polanski
Genre : Thriller
Description : Director Roman Polanski casts himself in the lead of the psychological thriller The Tenant. Trelkovsky (Polanski) rents an apartment in a spooky old residential building, where his neighbors — mostly old recluses — eye him with suspicious contempt. Upon d
Recorded date : UTC 2003-07-01 07:00:00
Encoded date : UTC 2017-07-03 23:28:36
Tagged date : UTC 2017-07-03 23:42:31
Cover : Yes

Video
ID : 4
Format : AVC
Format/Info : Advanced Video Codec
Format profile :
[email protected]
Format settings, CABAC : Yes
Format settings, ReFrames : 4 frames
Codec ID : avc1
Codec ID/Info : Advanced Video Coding
Duration : 2h 5mn
Bit rate : 5 169 Kbps
Width : 1 912 pixels
Height : 1 076 pixels
Display aspect ratio : 16:9
Frame rate mode : Variable
Frame rate : 23.976 fps
Minimum frame rate : 23.077 fps
Maximum frame rate : 26.087 fps
Color space : YUV
Chroma subsampling : 4:2:0
Bit depth : 8 bits
Scan type : Progressive
Bits/(Pixel*Frame) : 0.105
Stream size : 4.53 GiB (94%)
Language : English
Encoded date : UTC 2017-07-03 23:40:08
Tagged date : UTC 2017-07-03 23:41:48
Color range : Limited
Color primaries : BT.709
Transfer characteristics : BT.709
Matrix coefficients : BT.709

Audio #1
ID : 1
Format : AAC
Format/Info : Advanced Audio Codec
Format profile : LC
Codec ID : 40
Duration : 2h 5mn
Bit rate mode : Variable
Bit rate : 102 Kbps
Maximum bit rate : 124 Kbps
Channel(s) : 2 channels
Channel positions : Front: L R
Sampling rate : 48.0 KHz
Frame rate : 46.875 fps (1024 spf)
Compression mode : Lossy
Stream size : 91.8 MiB (2%)
Language : English
Default : Yes
Alternate group : 1
Encoded date : UTC 2017-07-03 23:28:37
Tagged date : UTC 2017-07-03 23:32:30

Audio #2
ID : 2
Format : AAC
Format/Info : Advanced Audio Codec
Format profile : LC
Codec ID : 40
Duration : 2h 5mn
Bit rate mode : Variable
Bit rate : 96.0 Kbps
Maximum bit rate : 119 Kbps
Channel(s) : 2 channels
Channel positions : Front: L R
Sampling rate : 48.0 KHz
Frame rate : 46.875 fps (1024 spf)
Compression mode : Lossy
Stream size : 86.0 MiB (2%)
Language : French
Default : No
Alternate group : 1
Encoded date : UTC 2017-07-03 23:32:31
Tagged date : UTC 2017-07-03 23:36:14

Audio #3
ID : 3
Format : AAC
Format/Info : Advanced Audio Codec
Format profile : LC
Codec ID : 40
Duration : 2h 5mn
Bit rate mode : Variable
Bit rate : 107 Kbps
Maximum bit rate : 164 Kbps
Channel(s) : 2 channels
Channel positions : Front: L R
Sampling rate : 48.0 KHz
Frame rate : 46.875 fps (1024 spf)
Compression mode : Lossy
Stream size : 96.0 MiB (2%)
Language : Spanish
Default : No
Alternate group : 1
Encoded date : UTC 2017-07-03 23:36:15
Tagged date : UTC 2017-07-03 23:40:07

Text #1
ID : 5
Format : Timed Text
Muxing mode : sbtl
Codec ID : tx3g
Duration : 2h 5mn
Bit rate mode : Variable
Bit rate : 58 bps
Stream size : 53.1 KiB (0%)
Language : Danish
Default : Yes
Forced : No
Alternate group : 2
Encoded date : UTC 2017-07-03 23:41:49
Tagged date : UTC 2017-07-03 23:41:57

Text #2
ID : 6
Format : Timed Text
Muxing mode : sbtl
Codec ID : tx3g
Duration : 2h 5mn
Bit rate mode : Variable
Bit rate : 59 bps
Stream size : 54.4 KiB (0%)
Language : Spanish
Default : No
Forced : No
Alternate group : 2
Encoded date : UTC 2017-07-03 23:41:58
Tagged date : UTC 2017-07-03 23:42:00

Text #3
ID : 7
Format : Timed Text
Muxing mode : sbtl
Codec ID : tx3g
Duration : 2h 5mn
Bit rate mode : Variable
Bit rate : 61 bps
Stream size : 55.4 KiB (0%)
Language : Finnish
Default : No
Forced : No
Alternate group : 2
Encoded date : UTC 2017-07-03 23:42:01
Tagged date : UTC 2017-07-03 23:42:04

Text #4
ID : 8
Format : Timed Text
Muxing mode : sbtl
Codec ID : tx3g
Duration : 2h 5mn
Bit rate mode : Variable
Bit rate : 64 bps
Stream size : 58.9 KiB (0%)
Language : French
Default : No
Forced : No
Alternate group : 2
Encoded date : UTC 2017-07-03 23:42:05
Tagged date : UTC 2017-07-03 23:42:08

Text #5
ID : 9
Format : Timed Text
Muxing mode : sbtl
Codec ID : tx3g
Duration : 2h 5mn
Bit rate mode : Variable
Bit rate : 60 bps
Stream size : 54.7 KiB (0%)
Language : Italian
Default : No
Forced : No
Alternate group : 2
Encoded date : UTC 2017-07-03 23:42:09
Tagged date : UTC 2017-07-03 23:42:12

Text #6
ID : 10
Format : Timed Text
Muxing mode : sbtl
Codec ID : tx3g
Duration : 2h 5mn
Bit rate mode : Variable
Bit rate : 58 bps
Stream size : 52.9 KiB (0%)
Language : Norwegian
Default : No
Forced : No
Alternate group : 2
Encoded date : UTC 2017-07-03 23:42:13
Tagged date : UTC 2017-07-03 23:42:15

Text #7
ID : 11
Format : Timed Text
Muxing mode : sbtl
Codec ID : tx3g
Duration : 2h 5mn
Bit rate mode : Variable
Bit rate : 59 bps
Stream size : 53.7 KiB (0%)
Language : Polish
Default : No
Forced : No
Alternate group : 2
Encoded date : UTC 2017-07-03 23:42:16
Tagged date : UTC 2017-07-03 23:42:19

Text #8
ID : 12
Format : Timed Text
Muxing mode : sbtl
Codec ID : tx3g
Duration : 2h 5mn
Bit rate mode : Variable
Bit rate : 54 bps
Stream size : 49.8 KiB (0%)
Language : Swedish
Default : No
Forced : No
Alternate group : 2
Encoded date : UTC 2017-07-03 23:42:20
Tagged date : UTC 2017-07-03 23:42:23

Text #9
ID : 13-CC1
Format : EIA-608
Muxing mode : Final Cut
Codec ID : c608
Duration : 2h 5mn
Bit rate mode : Constant
Stream size : 0.00 Byte (0%)
Language : English
Default : No
Forced : No
Alternate group : 2
Encoded date : UTC 2017-07-03 23:42:24
Tagged date : UTC 2017-07-03 23:42:29

The Tenant (1976) [1080p] Torrent




Hey Friend! Like us!