The Tourist (2010) 720p BluRay x264 Dual Audio [Hindi DD 5 1-English 5 1] - MSub ~ Ranvijay

The Tourist (2010) 720p BluRay x264 Dual Audio [Hindi DD 5 1-English 5 1] - MSub ~ Ranvijay Torrent
Size: 3.9 GB
Language: Hindi
Uploader: TheFighter

Download The Tourist (2010) 720p BluRay x264 Dual Audio [Hindi DD 5 1-English 5 1] - MSub ~ Ranvijay Torrent torrent video for PC, tablet, MAC, IPhone or Android device.
The Tourist (2010) 720p BluRay x264 Dual Audio [Hindi DD 5 1-English 5 1] - MSub ~ Ranvijay Torrent For Torrent download Link. Scroll down!.


MOVIE TRAILER BELLOW.




The Tourist (2010) 720p BluRay x264 Dual Audio [Hindi DD 5.1-English 5.1] - MSub ~ Ranvijay





Format                                   : Matroska
Format version                           : Version 4 / Version 2
File size                                : 3.86 GiB
Duration                                 : 1 h 43 min
Overall bit rate                         : 5 341 kb/s
Movie name                               : The Tourist (2010) 720p BluRay x264 Dual Audio [Hindi DD 5.1-English 5.1] - MSub ~ Ranvijay

Video
ID                                       : 1
Format                                   : AVC
Duration                                 : 1 h 43 min
Bit rate                                 : 4 276 kb/s
Width                                    : 1 280 pixels
Height                                   : 534 pixels
Display aspect ratio                     : 2.40:1
Frame rate mode                          : Constant
Frame rate                               : 23.976 (24000/1001) FPS
Stream size                              : 3.09 GiB (80%)
Language                                 : English
Default                                  : Yes
Forced                                   : No

Audio #1
ID                                       : 2
Format                                   : AC-3
Format/Info                              : Audio Coding 3
Codec ID                                 : A_AC3
Duration                                 : 1 h 43 min
Bit rate mode                            : Constant
Bit rate                                 : 640 kb/s
Channel(s)                               : 6 channels
Channel positions                        : Front: L C R, Side: L R, LFE
Sampling rate                            : 48.0 kHz
Frame rate                               : 31.250 FPS (1536 SPF)
Bit depth                                : 16 bits
Compression mode                         : Lossy
Stream size                              : 474 MiB (12%)
Title                                    : ~Ranvijay~
Language                                 : Hindi
Service kind                             : Complete Main
Default                                  : Yes
Forced                                   : Yes

Audio #2
ID                                       : 8
Format                                   : AC-3
Format/Info                              : Audio Coding 3
Codec ID                                 : A_AC3
Duration                                 : 1 h 43 min
Bit rate mode                            : Constant
Bit rate                                 : 384 kb/s
Channel(s)                               : 6 channels
Channel positions                        : Front: L C R, Side: L R, LFE
Sampling rate                            : 48.0 kHz
Frame rate                               : 31.250 FPS (1536 SPF)
Bit depth                                : 16 bits
Compression mode                         : Lossy
Stream size                              : 284 MiB (7%)
Title                                    : ~Ranvijay~
Language                                 : English
Service kind                             : Complete Main
Default                                  : No
Forced                                   : No

Text #1
ID                                       : 3
Format                                   : PGS
Muxing mode                              : zlib
Codec ID                                 : S_HDMV/PGS
Codec ID/Info                            : Picture based subtitle format used on BDs/HD-DVDs
Duration                                 : 1 h 35 min
Bit rate                                 : 19.3 kb/s
Count of elements                        : 1676
Stream size                              : 13.2 MiB (0%)
Title                                    : ~Ranvijay~
Language                                 : Hindi
Default                                  : Yes
Forced                                   : No

Text #2
ID                                       : 4
Format                                   : PGS
Muxing mode                              : zlib
Codec ID                                 : S_HDMV/PGS
Codec ID/Info                            : Picture based subtitle format used on BDs/HD-DVDs
Duration                                 : 1 h 35 min
Bit rate                                 : 20.3 kb/s
Count of elements                        : 1638
Stream size                              : 13.8 MiB (0%)
Title                                    : ~Ranvijay~
Language                                 : English
Default                                  : No
Forced                                   : No

Text #3
ID                                       : 5
Format                                   : PGS
Muxing mode                              : zlib
Codec ID                                 : S_HDMV/PGS
Codec ID/Info                            : Picture based subtitle format used on BDs/HD-DVDs
Duration                                 : 1 h 42 min
Bit rate                                 : 52.2 kb/s
Count of elements                        : 2982
Stream size                              : 38.5 MiB (1%)
Title                                    : ~Ranvijay~
Language                                 : English
Default                                  : No
Forced                                   : No

Text #4
ID                                       : 6
Format                                   : UTF-8
Codec ID                                 : S_TEXT/UTF8
Codec ID/Info                            : UTF-8 Plain Text
Duration                                 : 1 h 35 min
Bit rate                                 : 35 b/s
Count of elements                        : 819
Stream size                              : 24.7 KiB (0%)
Title                                    : ~Ranvijay~
Language                                 : English
Default                                  : No
Forced                                   : No

Text #5
ID                                       : 7
Format                                   : UTF-8
Codec ID                                 : S_TEXT/UTF8
Codec ID/Info                            : UTF-8 Plain Text
Duration                                 : 1 h 42 min
Bit rate                                 : 92 b/s
Count of elements                        : 1488
Stream size                              : 69.5 KiB (0%)
Title                                    : ~Ranvijay~
Language                                 : English
Default                                  : No
Forced                                   : No

Menu
00:00:00.000                             : en:00:00:00.000
00:08:05.860                             : en:00:08:05.860
00:11:30.857                             : en:00:11:30.857
00:17:08.277                             : en:00:17:08.277
00:25:06.672                             : en:00:25:06.672
00:30:27.117                             : en:00:30:27.117
00:34:13.009                             : en:00:34:13.009
00:40:59.582                             : en:00:40:59.582
00:49:29.842                             : en:00:49:29.842
00:55:22.736                             : en:00:55:22.736
01:00:55.944                             : en:01:00:55.944
01:06:24.314                             : en:01:06:24.314
01:12:52.535                             : en:01:12:52.535
01:17:40.739                             : en:01:17:40.739
01:24:38.365                             : en:01:24:38.365
01:30:16.536                             : en:01:30:16.536






















The Tourist (2010) 720p BluRay x264 Dual Audio [Hindi DD 5 1-English 5 1] - MSub ~ Ranvijay Torrent




Hey Friend! Like us!