Tilt 2017 1080p 1080p WEB-DL DD5 1 H 264 CRO-DIAMOND

Tilt 2017 1080p 1080p WEB-DL DD5 1 H 264 CRO-DIAMOND Torrent
Size: 3.4 GB
Language: English
Uploader: dmd12

Download Tilt 2017 1080p 1080p WEB-DL DD5 1 H 264 CRO-DIAMOND Torrent torrent video for PC, tablet, MAC, IPhone or Android device.
Tilt 2017 1080p 1080p WEB-DL DD5 1 H 264 CRO-DIAMOND Torrent For Torrent download Link. Scroll down!.


MOVIE TRAILER BELLOW.





Code:

General
Unique ID : 66723943284164594425047097939365524968 (0x32329064C8F4BF1000C0E5BF41CCF5E8)
Complete name : Tilt.2017.1080p.1080p.WEB-DL.DD5.1.H.264.CRO-DIAMOND.mkv
Format : Matroska
Format version : Version 4 / Version 2
File size : 3.45 GiB
Duration : 1h 40mn
Overall bit rate : 4 888 Kbps
Movie name : CRO DIAMOND 1080p
Encoded date : UTC 2018-04-01 21:03:39
Writing application : mkvmerge v9.6.0 ('Slave To Your Mind') 64bit
Writing library : libebml v1.3.4 + libmatroska v1.4.5
DURATION : 01:39:47.449000000
NUMBER_OF_FRAMES : 1354
NUMBER_OF_BYTES : 39276
_STATISTICS_WRITING_APP : mkvmerge v9.6.0 ('Slave To Your Mind') 64bit
_STATISTICS_WRITING_DATE_UTC : 2018-04-01 21:03:39
_STATISTICS_TAGS : BPS DURATION NUMBER_OF_FRAMES NUMBER_OF_BYTES

Video
ID : 1
Format : AVC
Format/Info : Advanced Video Codec
Format profile :
[email protected]
Format settings, CABAC : Yes
Format settings, ReFrames : 4 frames
Codec ID : V_MPEG4/ISO/AVC
Duration : 1h 40mn
Bit rate : 4 406 Kbps
Width : 1 920 pixels
Height : 816 pixels
Display aspect ratio : 2.35:1
Frame rate mode : Constant
Frame rate : 23.976 fps
Color space : YUV
Chroma subsampling : 4:2:0
Bit depth : 8 bits
Scan type : Progressive
Bits/(Pixel*Frame) : 0.117
Stream size : 3.11 GiB (90%)
Title : CRO DIAMOND 1080p
Default : Yes
Forced : No
Color range : Limited
Color primaries : BT.709
Transfer characteristics : BT.709
Matrix coefficients : BT.709

Audio
ID : 2
Format : AC-3
Format/Info : Audio Coding 3
Mode extension : CM (complete main)
Format settings, Endianness : Big
Codec ID : A_AC3
Duration : 1h 40mn
Bit rate mode : Constant
Bit rate : 384 Kbps
Channel(s) : 6 channels
Channel positions : Front: L C R, Side: L R, LFE
Sampling rate : 48.0 KHz
Compression mode : Lossy
Stream size : 277 MiB (8%)
Language : English
Default : Yes
Forced : No

Text
ID : 3
Format : UTF-8
Codec ID : S_TEXT/UTF8
Codec ID/Info : UTF-8 Plain Text
Language : English
Default : Yes
Forced : No

Menu
00:00:00.000 : en:Chapter One
00:15:00.192 : en:Chapter Two
00:30:00.175 : en:Chapter Three
00:45:00.200 : en:Chapter Four
01:00:00.142 : en:Chapter Five
01:15:00.167 : en:Chapter Six
01:30:00.150 : en:Chapter Seven

Tilt 2017 1080p 1080p WEB-DL DD5 1 H 264 CRO-DIAMOND Torrent




Hey Friend! Like us!