Tjockare än vatten (Thicker Than Water) - S02 E07 - 720p x265 HEVC - SWE (ENG SUBS) [BRSHNKV]

Tjockare än vatten (Thicker Than Water) - S02 E07 - 720p x265 HEVC - SWE (ENG SUBS) [BRSHNKV] Torrent
Size: 317.0 MB
Language: Swedish
Uploader: Baryshnikov

Download Tjockare än vatten (Thicker Than Water) - S02 E07 - 720p x265 HEVC - SWE (ENG SUBS) [BRSHNKV] Torrent torrent video for PC, tablet, MAC, IPhone or Android device.
Tjockare än vatten (Thicker Than Water) - S02 E07 - 720p x265 HEVC - SWE (ENG SUBS) [BRSHNKV] Torrent For Torrent download Link. Scroll down!.


MOVIE TRAILER BELLOW.







Tech:

Format : MPEG-4
Format profile : Base Media / Version 2
Codec ID : mp42
File size : 317 MiB
Duration : 43mn 22s
Overall bit rate mode : Variable
Overall bit rate : 1 022 Kbps
Movie name : Tjockare än vatten S02 E07 - 720p x265 HEVC [BRSHNKV]
Encoded date : UTC 2018-01-11 20:40:51
Tagged date : UTC 2018-01-11 20:40:51
Writing application : HandBrake 20160211184813-ffd8cb1-master 2016021301

Video
ID : 1
Format : HEVC
Format/Info : High Efficiency Video Coding
Format profile : Main
[email protected]@Main
Codec ID : hev1
Codec ID/Info : High Efficiency Video Coding
Duration : 43mn 22s
Bit rate : 851 Kbps
Width : 1 280 pixels
Height : 720 pixels
Display aspect ratio : 16:9
Frame rate mode : Constant
Frame rate : 25.000 fps
Color space : YUV
Chroma subsampling : 4:2:0
Bit depth : 10 bits
Bits/(Pixel*Frame) : 0.037
Stream size : 264 MiB (83%)
Writing library : x265 1.9:[Mac OS X][clang 7.0.2][64 bit] 10bit
Encoded date : UTC 2018-01-11 20:40:51
Tagged date : UTC 2018-01-11 20:40:51
Color range : Limited
Color primaries : BT.709
Transfer characteristics : BT.709
Matrix coefficients : BT.709

Audio
ID : 2
Format : AAC
Format/Info : Advanced Audio Codec
Format profile : LC
Codec ID : 40
Duration : 43mn 22s
Bit rate mode : Variable
Bit rate : 165 Kbps
Channel(s) : 2 channels
Channel positions : Front: L R
Sampling rate : 48.0 KHz
Compression mode : Lossy
Stream size : 51.0 MiB (16%)
Title : Stereo / Stereo
Language : Swedish
Encoded date : UTC 2018-01-11 20:40:51
Tagged date : UTC 2018-01-11 20:40:51

Tjockare än vatten (Thicker Than Water) - S02 E07 - 720p x265 HEVC - SWE (ENG SUBS) [BRSHNKV] Torrent




Hey Friend! Like us!