Tubelight (2017) 1080p WEB-DL H264 AAC2 0 ESub-DDR

Tubelight (2017) 1080p WEB-DL H264 AAC2 0 ESub-DDR Torrent
Size: 8.3 GB
Language: Hindi
Uploader: SaM

Download Tubelight (2017) 1080p WEB-DL H264 AAC2 0 ESub-DDR Torrent torrent video for PC, tablet, MAC, IPhone or Android device.
Tubelight (2017) 1080p WEB-DL H264 AAC2 0 ESub-DDR Torrent For Torrent download Link. Scroll down!.


MOVIE TRAILER BELLOW.




~ Tubelight ~

** 1080p/ WEBHD / H264 / AAC2.0 / ESubs **





Code:


General
Complete name               : Tubelight (2017) 1080p WEB-DL H264 AAC2.0 ESub-DDR.mp4
Format                      : MPEG-4
Format profile              : Base Media
Codec ID                    : isom (isom/iso2/avc1/mp41)
File size                   : 8.35 GiB
Duration                    : 2 h 9 min
Overall bit rate mode       : Constant
Overall bit rate            : 9 199 kb/s
Writing application         : Lavf54.63.104

Video
ID                          : 1
Format                      : AVC
Format/Info                 : Advanced Video Codec
Format profile              : [email protected]
Format settings             : CABAC / 2 Ref Frames
Format settings, CABAC      : Yes
Format settings, RefFrames  : 2 frames
Codec ID                    : avc1
Codec ID/Info               : Advanced Video Coding
Duration                    : 2 h 9 min
Bit rate mode               : Constant
Bit rate                    : 9 000 kb/s
Width                       : 1 920 pixels
Height                      : 1 080 pixels
Display aspect ratio        : 16:9
Frame rate mode             : Variable
Frame rate                  : 29.970 (30000/1001) FPS
Minimum frame rate          : 29.970 FPS
Maximum frame rate          : 30.000 FPS
Color space                 : YUV
Chroma subsampling          : 4:2:0
Bit depth                   : 8 bits
Scan type                   : Progressive
Bits/(Pixel*Frame)          : 0.145
Stream size                 : 8.13 GiB (97%)
Color range                 : Limited
Matrix coefficients         : BT.709

Audio
ID                          : 2
Format                      : AAC
Format/Info                 : Advanced Audio Codec
Format profile              : LC
Codec ID                    : mp4a-40-2
Duration                    : 2 h 9 min
Bit rate mode               : Constant
Bit rate                    : 225 kb/s
Channel(s)                  : 2 channels
Channel positions           : Front: L R
Sampling rate               : 48.0 kHz
Frame rate                  : 46.875 FPS (1024 SPF)
Compression mode            : Lossy
Stream size                 : 210 MiB (2%)
Language                    : Hindi
Default                     : Yes






















A DDR Exclusive Release...


Tubelight (2017) 1080p WEB-DL H264 AAC2 0 ESub-DDR Torrent




Hey Friend! Like us!