tubelight 2017 h 264 DESI SCR 5 1 ch exclusive by sam mp4

tubelight 2017 h 264 DESI SCR 5 1 ch exclusive by sam mp4 Torrent
Size: 1.1 GB
Language: Hindi
Uploader: HEVCmovies

Download tubelight 2017 h 264 DESI SCR 5 1 ch exclusive by sam mp4 Torrent torrent video for PC, tablet, MAC, IPhone or Android device.
tubelight 2017 h 264 DESI SCR 5 1 ch exclusive by sam mp4 Torrent For Torrent download Link. Scroll down!.


MOVIE TRAILER BELLOW.



Sample video




video
ID : 1
Format : AVC
Format/Info : Advanced Video Codec
Format profile : [email protected]
Format settings, CABAC : Yes
Format settings, ReFrames : 4 frames
Codec ID : avc1
Codec ID/Info : Advanced Video Coding
Duration : 2 h 12 min
Bit rate : 1 000 kb/s
Width : 640 pixels
Height : 268 pixels
Display aspect ratio : 2.40:1
Frame rate mode : Variable
Frame rate : 23.976 (24000/1001) FPS
Minimum frame rate : 13.597 FPS
Maximum frame rate : 25.000 FPS
Color space : YUV
Chroma subsampling : 4:2:0
Bit depth : 8 bits
Scan type : Progressive
Bits/(Pixel*Frame) : 0.243
Stream size : 941 MiB (84%)

Audio
ID : 2
Format : AAC
Format/Info : Advanced Audio Codec
Format profile : LC
Codec ID : 40
Duration : 2 h 12 min
Bit rate mode : Variable
Bit rate : 192 kb/s
Channel(s) : 2 channels
Channel(s)_Original : 6 channels
Channel positions : Front: L C R, Side: L R, LFE
Sampling rate : 48.0 kHz
Frame rate : 46.875 FPS (1024 spf)
Compression mode : Lossy
Stream size : 179 MiB (16%)
Title : Surround / Surround
Default : Yes



tubelight 2017 h 264 DESI SCR 5 1 ch exclusive by sam mp4 Torrent




Hey Friend! Like us!