Tubelight (2017) Hindi 1080p WEB-HD AVC ACC ESub - Team TMR

Tubelight (2017) Hindi 1080p WEB-HD AVC ACC ESub - Team TMR Torrent
Size: 8.3 GB
Language: English
Uploader: deadpoool

Download Tubelight (2017) Hindi 1080p WEB-HD AVC ACC ESub - Team TMR Torrent torrent video for PC, tablet, MAC, IPhone or Android device.
Tubelight (2017) Hindi 1080p WEB-HD AVC ACC ESub - Team TMR Torrent For Torrent download Link. Scroll down!.


MOVIE TRAILER BELLOW.


[FONT="Century Gothic"][SIZE="5"][COLOR="Blue"]Tubelight (2017) Hindi 1080p WEB-HD AVC ACC ESub - Team TMR[/COLOR][/SIZE][/FONT]



Code:

General
Complete name : Tubelight (2017) Hindi 1080p WEB-HD AVC ACC ESub - Team TMR.mp4
Format : MPEG-4
Format profile : Base Media
Codec ID : isom (isom/iso2/avc1/mp41)
File size : 8.35 GiB
Duration : 2h 9mn
Overall bit rate mode : Constant
Overall bit rate : 9 199 Kbps
Writing application : Lavf54.63.104

Video
ID : 1
Format : AVC
Format/Info : Advanced Video Codec
Format profile : [email protected]
Format settings, CABAC : Yes
Format settings, ReFrames : 2 frames
Codec ID : avc1
Codec ID/Info : Advanced Video Coding
Duration : 2h 9mn
Bit rate mode : Constant
Bit rate : 9 000 Kbps
Width : 1 920 pixels
Height : 1 080 pixels
Display aspect ratio : 16:9
Frame rate mode : Variable
Frame rate : 29.970 (30000/1001) fps
Minimum frame rate : 29.970 fps
Maximum frame rate : 30.000 fps
Color space : YUV
Chroma subsampling : 4:2:0
Bit depth : 8 bits
Scan type : Progressive
Bits/(Pixel*Frame) : 0.145
Stream size : 8.13 GiB (97%)
Color range : Limited
Matrix coefficients : BT.709

Audio
ID : 2
Format : AAC
Format/Info : Advanced Audio Codec
Format profile : LC
Codec ID : 40
Duration : 2h 9mn
Duration_LastFrame : -21ms
Bit rate mode : Constant
Bit rate : 225 Kbps
Channel(s) : 2 channels
Channel positions : Front: L R
Sampling rate : 48.0 KHz
Frame rate : 46.875 fps (1024 spf)
Compression mode : Lossy
Stream size : 210 MiB (2%)
Language : English
Default : Yes
Alternate group : 1


Tubelight (2017) Hindi 1080p WEB-HD AVC ACC ESub - Team TMR Torrent




Hey Friend! Like us!