Tumhari Sulu 2017 720p Esub HD Hindi GOPISAHI

Tumhari Sulu 2017 720p Esub HD Hindi GOPISAHI Torrent
Size: 557.5 MB
Language: Hindi
Uploader: PENDUDESI

Download Tumhari Sulu 2017 720p Esub HD Hindi GOPISAHI Torrent torrent video for PC, tablet, MAC, IPhone or Android device.
Tumhari Sulu 2017 720p Esub HD Hindi GOPISAHI Torrent For Torrent download Link. Scroll down!.


MOVIE TRAILER BELLOW.



Format : Matroska
Format version : Version 4 / Version 2
File size : 558 MiB
Duration : 2 h 14 min
Overall bit rate : 580 kb/s
Movie name : Tumhari Sulu 2017 GOPISAHI

Video
Format : AVC
Codec ID : V_MPEG4/ISO/AVC
Duration : 2 h 14 min
Bit rate : 500 kb/s
Width : 1 280 pixels
Height : 720 pixels
Display aspect ratio : 16:9
Frame rate mode : Constant
Frame rate : 25.000 FPS
Stream size : 481 MiB (86%)
Writing library : x264
Language : Hindi

Audio
Format : AAC
Duration : 2 h 14 min
Bit rate : 77.3 kb/s
Channel(s) : 6 channels
Channel positions : Front: L C R, Side: L R, LFE
Sampling rate : 44.1 kHz
Frame rate : 43.066 FPS (1024 SPF)
Stream size : 74.4 MiB (13%)
Language : Hindi

Text
Language : English


Tumhari Sulu 2017 720p Esub HD Hindi GOPISAHI Torrent




Hey Friend! Like us!